Статистика раздачи
Размер:  7,77 GB   |    Зарегистрирован:  9 месяцев 5 дней   |    Скачан:  0 раз

Полного источника не было: Никогда

 
   
 
 

DR_KTO ®

Пол:
Не указан
Стаж:
9 месяцев 6 дней
Сообщений:
105

От слона до муравья вместе с Хрюшей и… (50 выпусков)
Год выпуска: 2014
Страна: Россия
Жанр: Детская, познавательная
Продолжительность: 00:10:00 х 50
Перевод: Не требуется
Русские субтитры: нет
Ведущая: Марина Яковлева
Телеканал: Карусель
Описание: Хрюша и его друзья знакомят маленьких зрителей с животными нашей планеты.
На Земле, кроме людей, есть много других обитателей. Они не умеют говорить и не могут сами рассказать о себе, но для героев передачи «Спокойной ночи, малыши!» язык животных не представляет особых трудностей, ведь они сами похожи на хорошо знакомых всем детям зверюшек, хотя говорят и поступают как люди.
Поросёнок Хрюша, зайчонок Степашка, пёс Филя, медвежонок Мишутка и ворона Каркуша решили стать переводчиками со звериного языка и открыть клуб зверолюбов. Но, прежде всего, им самим надо познакомиться с разными видами животных и птиц, узнать, как и где они живут, какие у них особенности. В этом им поможет ведущая передачи Марина и новый друг — тигрёнок Мур. Этот малыш из породы редких амурских тигров. Он настоящий защитник природы, хорошо знакомый со многими дикими животными, знает их проблемы и выступает от имени всех исчезающих и редких видов животных, которые нуждаются в защите.
Доп. информация: Запись с канала "Карусель". Нумерация выпусков - с него же http://www.karusel-tv.ru/announce/13820/13647
Ссылка на предыдущие и альтернативные раздачи: http://cybertorrent.ru/tracker.php?nm=%CE%F2+%F1%EB%EE%ED%E0+%E4%EE
Сэмпл: http://multi-up.com/1028055
Релиз:
качество: SATRip
формат: AVI
Видео: 720x560 (4:3), 25 fps, XviD build 64 ~1998 kbps avg, 0.20 bit/pixel
Аудио: 48 kHz, MPEG Layer 3, 2 ch, ~192.00 kbps avg

Список выпусков/серий

01. Тиграмур из семейства кошачьих.avi
02. Самое большое царство.avi
03. Не такой уж он и серый.avi
04. Медведоводитель.avi
05. Грызуны.avi
06. Сказки про животных.avi
07. Лев.avi
08. Муравьи.avi
09. Колючие.avi
10. Рукокрылые.avi
11. Эволюция. Строение рыб.avi
12. Рыбы. Костные и хрящевые.avi
13. Зоопарк.avi
14. Большие вегетарианцы.avi
15. Совы.avi
16. Маскировка.avi
17. Сумчатые.avi
18. Клювы. Пеликаны.avi
19. Черепахи.avi
20. Земноводные. Жабы, лягушки.avi
21. Земноводные. Амфиума.avi
22. Зубры. Бизоны.avi
23. Моржи и тюлени.avi
24. Страус.avi
25. Насекомые.avi
26. Пчелы.avi
27. Жираф.avi
28. Забота о детёнышах.avi
29. Рептилии.avi
30. Рога.avi
31. Орлы и соколы.avi
32. Моллюски.avi
33. Акулы.avi
34. Экзотические животные.avi
35. Утконос и ехидна.avi
36. Морские жители. Морские звёзды.avi
37. Жуки.avi
38. Пингвины.avi
39. Птицы певчие. Семейство воробьиные.avi
40. Животные пустыни.avi
41. Дельфины.avi
42. Пауки.avi
43. Язык животных.avi
44. Бабочки, мотыльки.avi
45. Обезьяны.avi
46. Уссурийская тайга.avi
47. Зачем нужны заповедники.avi
48. Кто как спит.avi
49. Чемпионы, рекордсмены.avi
50. Игра.avi

MediaInfo

Полное имя : H:\01 РАЗДАЧИ ШОУ\От слона до\От слона\01. Тиграмур из семейства кошачьих.avi
Формат : AVI
Формат/Информация : Audio Video Interleave
Размер файла : 161 Мбайт
Продолжительность : 10 м.
Общий поток : 2203 Кбит/сек
Программа кодирования : Lavf54.63.100
Видео
Идентификатор : 0
Формат : MPEG-4 Visual
Профиль формата : Simple@L3
Параметр BVOP формата : Нет
Параметр QPel формата : Нет
Параметр GMC формата : Без точки перехода
Параметр матрицы формата : Default (H.263)
Идентификатор кодека : XVID
Идентификатор кодека/Подсказка : XviD
Продолжительность : 10 м.
Битрейт : 1998 Кбит/сек
Ширина : 720 пикселей
Высота : 560 пикселей
Соотношение сторон : 4:3
Частота кадров : 25,000 кадров/сек
Цветовое пространство : YUV
Субдискретизация насыщенности : 4:2:0
Битовая глубина : 8 бит
Тип развёртки : Прогрессивная
Метод сжатия : С потерями
Бит/(Пиксели*Кадры) : 0.198
Размер потока : 146 Мбайт (91%)
Библиотека кодирования : XviD 64
Аудио
Идентификатор : 1
Формат : MPEG Audio
Версия формата : Version 1
Профиль формата : Layer 3
Идентификатор кодека : 55
Идентификатор кодека/Подсказка : MP3
Продолжительность : 10 м.
Вид битрейта : Постоянный
Битрейт : 192 Кбит/сек
Каналы : 2 канала
Частота : 48,0 КГц
Метод сжатия : С потерями
Размер потока : 14,0 Мбайт (9%)
Выравнивание : Соединение по промежуткам
Продолжительность промежутка : 24 мс. (0,60 видеокадр)
Время предзагрузки промежутка : 24 мс.
Библиотека кодирования : LAMEUUU¶‰yf" / —Њ*DD

Скриншоты

[cybertorrent.ru].t2156.torrent 
Торрент: Зарегистрирован [ 2018-02-16 11:35 ] · 3259381C87A7956A64299254BFDDEB157B0871DA

Скачать .torrent

Скачать

24 KB

Статус: проверено
Скачан: 0 раз
Размер: 7,77 GB
Профиль [ЛС]
Показать сообщения:    

Текущее время: 21-Ноя 16:05

Часовой пояс: UTC ± 0



Вы не можете начинать темы
Вы не можете отвечать на сообщения
Вы не можете редактировать свои сообщения
Вы не можете удалять свои сообщения
Вы не можете голосовать в опросах
Вы не можете прикреплять файлы к сообщениям
Вы можете скачивать файлы
Torrents24.ru открытый BitTorrent Torrents24.pl открытый BitTorrent CyberTorrent.ru открытый BitTorrent BtList.ru рейтинг BitTorrent трекеров Яндекс.Метрика