Статистика раздачи
Размер:  11,78 GB   |    Зарегистрирован:  6 месяцев   |    Скачан:  0 раз

Полного источника не было: Никогда

 
   
 
 

martin ®

Пол:
Не указан
Стаж:
6 месяцев 1 день
Сообщений:
47

Аватар.Легенда о Корре / Avatar.The Legend of Korra
Страна: США
Жанр: мультсериал, приключения, семейный, фэнтези
Продолжительность: ~ 00:23:00
Год выпуска: 2014
Перевод: Профессиональный (дублированный) SDI Media (по заказу Nickelodeon)
Русские субтитры: нет
Режиссёр: Michael Dante DiMartino / Майкл Данте ДиМартино Bryan Konietzko / Брайан Кониецко
Описание: Действие сериала разворачивается примерно через 70 лет после победы аватара Аанга над Лордом Огня в последней серии мультсериала «Аватар: Легенда об Аанге». Корра, уже овладевшая магией воды, земли и огня должна обучиться последнему элементу — магии воздуха. В этом ей может помочь только сын Аанга и Катары — Тензин. Корра живёт в «Республиканском городе». Республиканский город — это место, где вместе живут люди всех наций. Героям мультсериала предстоит борьба с преступностью и с готовящимся восстанием против магов.
Список серий:
Глава 1: Глоток свежего воздуха
Глава 2: Перерождение
Глава 3: Королева Земли
Глава 4: В опасности
Глава 5: Клан Металла
Глава 6: Старые раны
Глава 7: Истинный Маг Воздуха
Глава 8: Ужас внутри
Глава 9: Надзор
Глава 10: Да здравствует Королева
Глава 11: Ультиматум
Глава 12: Вступи в пустоту
Глава 13: Яд Красного лотоса
Ссылка на предыдущие и альтернативные раздачи: http://cybertorrent.ru/search.php?nm=%CB%E5%E3%E5%ED%E4%E0+%EE+%CA%EE%F0%F0%E5
Семпл: http://multi-up.com/1028306
Качество: WEB-DL 1080p
Формат: MKV
Видео: AVC, 1920x1080, 23.976 fps, ~5000 kbps
Аудио: Русский, AC-3, 48 kHz, 2 ch, 192 kbps
Аудио 2: English, AC-3. 48 kHz, 6 ch, 384 kbps
Субтитры: отсутствуют

Подробные технические данные

Общее
Уникальный идентификатор : 195917616514219448968179483021086573087 (0x93645C44FE9136E4B03D21B06834421F)
Полное имя : E:\The. Legend.Of.Korra.S03.WEB-DL.1080p\The.Legend.Of.Korra.S03E01.1080p.mkv
Формат : Matroska
Версия формата : Version 4 / Version 2
Размер файла : 920 Мбайт
Продолжительность : 22 м.
Общий поток : 5602 Кбит/сек
Дата кодирования : UTC 2015-01-21 21:16:35
Программа кодирования : mkvmerge v7.5.0 ('Glass Culture') 32bit built on Jan 4 2015 16:37:25
Библиотека кодирования : libebml v1.3.1 + libmatroska v1.4.2
Attachements : cover.jpeg
DURATION : 00:22:57.408000000
NUMBER_OF_FRAMES : 43044
NUMBER_OF_BYTES : 33057792
_STATISTICS_WRITING_APP : mkvmerge v7.5.0 ('Glass Culture') 32bit built on Jan 4 2015 16:37:25
_STATISTICS_WRITING_DATE_UTC : 2015-01-21 21:16:35
_STATISTICS_TAGS : BPS DURATION NUMBER_OF_FRAMES NUMBER_OF_BYTES
Видео
Идентификатор : 1
Формат : AVC
Формат/Информация : Advanced Video Codec
Профиль формата : High@L4.0
Параметр CABAC формата : Да
Параметр ReFrames формата : 4 кадра
Идентификатор кодека : V_MPEG4/ISO/AVC
Продолжительность : 22 м.
Битрейт : 4914 Кбит/сек
Ширина : 1912 пикселей
Высота : 1072 пикселя
Соотношение сторон : 16:9
Режим частоты кадров : Постоянный
Частота кадров : 23,976 кадра/сек
Цветовое пространство : YUV
Субдискретизация насыщенности : 4:2:0
Битовая глубина : 8 бит
Тип развёртки : Прогрессивная
Бит/(Пиксели*Кадры) : 0.100
Размер потока : 807 Мбайт (88%)
Язык : English
Default : Да
Forced : Нет
Основные цвета : BT.709
Характеристики трансфера : BT.709
Коэффициенты матрицы : BT.709
colour_range : Limited
Аудио #1
Идентификатор : 2
Формат : AC-3
Формат/Информация : Audio Coding 3
Расширение режима : CM (complete main)
Параметр Endianness формата : Big
Идентификатор кодека : A_AC3
Продолжительность : 22 м.
Вид битрейта : Постоянный
Битрейт : 192 Кбит/сек
Каналы : 2 канала
Расположение каналов : Front: L R
Частота : 48,0 КГц
Битовая глубина : 16 бит
Метод сжатия : С потерями
Размер потока : 31,5 Мбайт (3%)
Заголовок : Nick
Язык : Russian
Default : Да
Forced : Нет
Аудио #2
Идентификатор : 3
Формат : AC-3
Формат/Информация : Audio Coding 3
Расширение режима : CM (complete main)
Параметр Endianness формата : Big
Идентификатор кодека : A_AC3
Продолжительность : 22 м.
Вид битрейта : Постоянный
Битрейт : 384 Кбит/сек
Каналы : 6 каналов
Расположение каналов : Front: L C R, Side: L R, LFE
Частота : 48,0 КГц
Битовая глубина : 16 бит
Метод сжатия : С потерями
Размер потока : 63,1 Мбайт (7%)
Язык : English
Default : Нет
Forced : Нет

Скриншоты




За cведение серий огромное спасибо mer-ci
[cybertorrent.ru].t2157.torrent 
Торрент: Зарегистрирован [ 2018-02-16 11:35 ] · 4BFCCC8BCC813B868095872CC0B2A009281161FD

Скачать .torrent

Скачать

31 KB

Статус: проверено
Скачан: 0 раз
Размер: 11,78 GB
Профиль [ЛС]
Показать сообщения:    

Текущее время: 17-Авг 09:21

Часовой пояс: UTC ± 0



Вы не можете начинать темы
Вы не можете отвечать на сообщения
Вы не можете редактировать свои сообщения
Вы не можете удалять свои сообщения
Вы не можете голосовать в опросах
Вы не можете прикреплять файлы к сообщениям
Вы можете скачивать файлы
Torrents24.ru открытый BitTorrent Torrents24.pl открытый BitTorrent CyberTorrent.ru открытый BitTorrent BtList.ru рейтинг BitTorrent трекеров Яндекс.Метрика