Статистика раздачи
Размер:  2,19 GB   |    Зарегистрирован:  3 месяца 9 дней   |    Скачан:  0 раз

Полного источника не было: Никогда

 
   
 
 

lopster ®

Пол:
Не указан
Стаж:
3 месяца 9 дней
Сообщений:
612

Экипаж / Open Matte
Жанр: драма, приключения, триллер
Год выпуска: 2016
Продолжительность: 02:11:34
Режиссер: Николай Лебедев
В ролях: Данила Козловский, Владимир Машков, Агне Грудите, Катерина Шпица, Сергей Газаров, Елена Яковлева, Сергей Шакуров, Вера Иванова, Татьяна Новик, Сергей Кемпо, Алёна Бабенко, Сергей Романович
Описание: Молодой и талантливый лётчик Алексей Гущин из-за своего неуступчивого характера не смог удержаться ни в военной, ни в грузовой авиации. Начальство не желает видеть в своих рядах подчинённого, который готов оспаривать приказы, даже если те действительно абсурдны. Наконец, при помощи отца он устраивается на работу в пассажирскую авиакомпанию в экипаж строгого Леонида Зинченко, профессионала, чья дисциплина и неукоснительное следование правилам стали уже легендарными. Роль второго пилота не очень нравится своенравному Гущину, у которого на всё своё мнение, но, тем не менее, пилоты уживаются и начинают спокойно работать.
Всё было нормально до случая со скандалом на борту, когда Алексей усмирил зарвавшегося VIP-пассажира. Тот оказывается одним из совладельцев компании, и лётчик попадает в опалу. Вместо увольнения, которого удалось избежать по просьбе Зинченко, экипаж отправляют далеко от престижных маршрутов. Их новая задача – возить пассажиров между архипелагами в Тихом океане, где ведутся большие горнопромышленные работы. В один из дней рутинные перелёты прерваны экстренным вызовом – на одном из островов началось сильнейшее извержение вулкана. Чтобы спасти людей от раскалённой лавы, у наших лётчиков есть всего один шанс. Теперь нужно забыть о былых разногласиях, собраться и выполнить всё от них зависящее на пределе своих возможностей.
Доп. информация: Звук и конечные титры взяты с лицензии
Различия BD и HDTV - разное наполнение кадра - 16:9 (1.78:1) -> http://screenshotcomparison.com/comparison.php?id=201871
Фильмы в Fullscreen (4:3) и Open Matte (16:9) форматах
Сэмпл: http://multi-up.com/1142735/
Качество видео: HDTVRip
Формат видео: AVI
Видео: XviD / 1986 kbps / 704x400 / 25.000 fps
Аудио: AC3 / 6 ch / 384 kbps / 48 kHz

MediaInfo

General
Complete name : J:\Torrents\Готовые релизы\Экипаж (2016) HDTVRip [Open Matte].avi
Format : AVI
Format/Info : Audio Video Interleave
Format profile : OpenDML
File size : 2.19 GiB
Duration : 2h 11mn
Overall bit rate : 2 384 Kbps
Video
ID : 0
Format : MPEG-4 Visual
Format profile : Advanced Simple@L5
Format settings, BVOP : 2
Format settings, QPel : No
Format settings, GMC : No warppoints
Format settings, Matrix : Default (MPEG)
Codec ID : XVID
Codec ID/Hint : XviD
Duration : 2h 11mn
Bit rate : 1 986 Kbps
Width : 704 pixels
Height : 400 pixels
Display aspect ratio : 16:9
Frame rate : 25.000 fps
Color space : YUV
Chroma subsampling : 4:2:0
Bit depth : 8 bits
Scan type : Progressive
Compression mode : Lossy
Bits/(Pixel*Frame) : 0.282
Stream size : 1.83 GiB (83%)
Writing library : XviD 64
Audio
ID : 1
Format : AC-3
Format/Info : Audio Coding 3
Mode extension : CM (complete main)
Format settings, Endianness : Big
Codec ID : 2000
Duration : 2h 11mn
Bit rate mode : Constant
Bit rate : 384 Kbps
Channel(s) : 6 channels
Channel positions : Front: L C R, Side: L R, LFE
Sampling rate : 48.0 KHz
Frame rate : 31.250 fps (1536 spf)
Compression mode : Lossy
Stream size : 361 MiB (16%)
Alignment : Aligned on interleaves
Interleave, duration : 32 ms (0.80 video frame)

Скриншот c названием фильма

Скриншоты

Цитата:
  • Исходник предоставлен пользователем doctor-myp3
[cybertorrent.ru].t216.torrent 
Торрент: Зарегистрирован [ 2018-02-15 15:34 ] · FE1B3CF53871B29C4FE8948808C429A785266DE2

Скачать .torrent

Скачать

12 KB

Статус: проверено
Скачан: 0 раз
Размер: 2,19 GB
Профиль [ЛС]
Показать сообщения:    

Текущее время: 25-Май 09:06

Часовой пояс: UTC ± 0



Вы не можете начинать темы
Вы не можете отвечать на сообщения
Вы не можете редактировать свои сообщения
Вы не можете удалять свои сообщения
Вы не можете голосовать в опросах
Вы не можете прикреплять файлы к сообщениям
Вы можете скачивать файлы