Статистика раздачи
Нет
 
     
 
 

MAGNAT ®

Пол:
Мужской
Стаж:
1 год 8 месяцев
Сообщений:
9096

Девушка из долины / Valley Girl
Страна: США
Жанр: мюзикл, мелодрама, комедия
Год выпуска: 2020
Продолжительность: 01:42:45-Перевод: Профессиональный (многоголосый закадровый) | Greb & Creative
Субтитры: английские
Оригинальная аудиодорожка: английский-Режиссер:
Рэйчел Голденберг / Rachel Lee Goldenberg-В ролях: Джош Уайтхаус, Мэй Уитман, Хлоя Беннет, Джессика Рот, Пейтон Лист (II), Логан Пол, Эллин Рэйчел, Джош Фэйдем, Джесси Эннис, Эшли Мюррэй-Описание: Руби, только что расставшейся со своим парнем, ее мама Джули рассказывает историю своей юности, пришедшейся на бурные 1980-е. Именно тогда Джули, приличная девочка из хорошей семьи, переживающая кризис отношений с высокомерным спортсменом Микки, неожиданно встречает на пляже Лос-Анджелеса музыканта-панка Рэнди, в которого девушка влюбляется, несмотря на то, что и друзья, и родители выступают против этих чувств.
Качество видео: HDRip
Формат видео: AVI
Видео: 704x384 (1.83:1), 23.976 fps, XviD build 73 ~1634 kbps avg, 0.25 bit/pixel
Аудио 1: 48 kHz, AC3 Dolby Digital, 2/0 (L,R) ch, ~192 kbps | RUS
Аудио 2: 48 kHz, AC3 Dolby Digital, 2/0 (L,R) ch, ~192 kbps | ENG-

MediaInfo

Код:
Формат : AVI
Формат/Информация : Audio Video Interleave
Размер файла : 1,46 Гбайт
Продолжительность : 1 ч. 42 м.
Общий поток : 2 034 Кбит/сек
Название фильма : Девушка из долины_2020_HDRip
Программа кодирования : VirtualDubMod 1.5.10.3 | www.virtualdub-fr.org || (build 2550/release)
Авторское право : порошков
Видео
Идентификатор : 0
Формат : MPEG-4 Visual
Профиль формата : Advanced Simple@L5
Настройки формата : BVOP1 / Custom Matrix
Параметр BVOP формата : 1
Параметр QPel формата : Нет
Параметр GMC формата : Без точки перехода
Параметр матрицы формата : Выборочная
Идентификатор кодека : XVID
Идентификатор кодека/Подсказка : XviD
Продолжительность : 1 ч. 42 м.
Битрейт : 1 635 Кбит/сек
Ширина : 704 пикселя
Высота : 384 пикселя
Соотношение сторон : 1,85:1
Частота кадров : 23,976 (24000/1001) кадра/сек
Цветовое пространство : YUV
Субдискретизация насыщенности : 4:2:0
Битовая глубина : 8 бит
Тип развёртки : Прогрессивная
Метод сжатия : С потерями
Бит/(Пиксели*Кадры) : 0.252
Размер потока : 1,17 Гбайт (80%)
Библиотека кодирования : XviD 73
Аудио #1
Идентификатор : 1
Формат : AC-3
Формат/Информация : Audio Coding 3
Коммерческое название : Dolby Digital
Идентификатор кодека : 2000
Продолжительность : 1 ч. 42 м.
Вид битрейта : Постоянный
Битрейт : 192 Кбит/сек
Каналы : 2 канала
Channel layout : L R
Частота : 48,0 КГц
Частота кадров : 31,250 кадров/сек (1536 SPF)
Метод сжатия : С потерями
Размер потока : 141 Мбайт (9%)
Выравнивание : Разделение по промежуткам
Продолжительность промежутка : 42 мс. (1,00 видеокадр)
Время предзагрузки промежутка : 500 мс.
Заголовок : rus
Service kind : Complete Main
Аудио #2
Идентификатор : 2
Формат : AC-3
Формат/Информация : Audio Coding 3
Коммерческое название : Dolby Digital
Идентификатор кодека : 2000
Продолжительность : 1 ч. 42 м.
Вид битрейта : Постоянный
Битрейт : 192 Кбит/сек
Каналы : 2 канала
Channel layout : L R
Частота : 48,0 КГц
Частота кадров : 31,250 кадров/сек (1536 SPF)
Метод сжатия : С потерями
Размер потока : 141 Мбайт (9%)
Выравнивание : Разделение по промежуткам
Продолжительность промежутка : 42 мс. (1,00 видеокадр)
Время предзагрузки промежутка : 500 мс.
Заголовок : eng
Service kind : Complete Main

Скриншоты


Профиль [ЛС]
Показать сообщения:    

Текущее время: 04-Дек 05:21

Часовой пояс: UTC ± 0



Вы не можете начинать темы
Вы не можете отвечать на сообщения
Вы не можете редактировать свои сообщения
Вы не можете удалять свои сообщения
Вы не можете голосовать в опросах
Вы не можете прикреплять файлы к сообщениям
Вы не можете скачивать файлы