Статистика раздачи
Нет
 
     
 
 

MAGNAT ®

Пол:
Мужской
Стаж:
1 год 8 месяцев
Сообщений:
9096

Борат 2 / Borat Subsequent Moviefilm
Страна: Великобритания, США
Жанр: комедия
Год выпуска: 2020
Продолжительность: 01:36:04-Перевод: Любительский (многоголосый закадровый) | @MUZOBOZ@
Субтитры: русские, английские
Оригинальная аудиодорожка: английский-Режиссер:
Джейсон Уолинер / Jason Woliner-В ролях:
Саша Барон Коэн, Мария Бакалова, Том Хэнкс, Дэни Попеску, Ирина Новак, Луэнелль, Рудольф В. Джулиани, Майк Пенс-Описание: За 14 лет журналист Борат Сагдиев стал звездой Казахстана и теперь решает показать дочери прелести американской жизни, а заодно и выдать её замуж.-Качество видео: WEB-DLRip
Формат видео: AVI
Видео: 720x400 (1.80:1), 23.976 fps, XviD build 73 ~1776 kbps avg, 0.26 bit/pixel
Аудио 1: 48 kHz, AC3 Dolby Digital, 2/0 (L,R) ch, ~192 kbps | RUS
Аудио 2: 48 kHz, AC3 Dolby Digital, 2/0 (L,R) ch, ~192 kbps | ENG-

MediaInfo

Код:
Формат : AVI
Формат/Информация : Audio Video Interleave
Размер файла : 1,46 Гбайт
Продолжительность : 1 ч. 36 м.
Общий поток : 2 175 Кбит/сек
Название фильма : Борат 2_2020_WEB-DLRip
Программа кодирования : VirtualDubMod 1.5.10.3 | www.virtualdub-fr.org || (build 2550/release)
Авторское право : порошков
Видео
Идентификатор : 0
Формат : MPEG-4 Visual
Профиль формата : Advanced Simple@L5
Настройки формата : BVOP1 / Custom Matrix
Параметр BVOP формата : 1
Параметр QPel формата : Нет
Параметр GMC формата : Без точки перехода
Параметр матрицы формата : Выборочная
Идентификатор кодека : XVID
Идентификатор кодека/Подсказка : XviD
Продолжительность : 1 ч. 36 м.
Битрейт : 1 777 Кбит/сек
Ширина : 720 пикселей
Высота : 400 пикселей
Соотношение сторон : 16:9
Частота кадров : 23,976 (24000/1001) кадра/сек
Цветовое пространство : YUV
Субдискретизация насыщенности : 4:2:0
Битовая глубина : 8 бит
Тип развёртки : Прогрессивная
Метод сжатия : С потерями
Бит/(Пиксели*Кадры) : 0.257
Размер потока : 1,19 Гбайт (82%)
Библиотека кодирования : XviD 73
Аудио #1
Идентификатор : 1
Формат : AC-3
Формат/Информация : Audio Coding 3
Коммерческое название : Dolby Digital
Идентификатор кодека : 2000
Продолжительность : 1 ч. 36 м.
Вид битрейта : Постоянный
Битрейт : 192 Кбит/сек
Каналы : 2 канала
Channel layout : L R
Частота : 48,0 КГц
Частота кадров : 31,250 кадров/сек (1536 SPF)
Метод сжатия : С потерями
Размер потока : 132 Мбайт (9%)
Выравнивание : Разделение по промежуткам
Продолжительность промежутка : 42 мс. (1,00 видеокадр)
Время предзагрузки промежутка : 500 мс.
Заголовок : rus
Service kind : Complete Main
Аудио #2
Идентификатор : 2
Формат : AC-3
Формат/Информация : Audio Coding 3
Коммерческое название : Dolby Digital
Идентификатор кодека : 2000
Продолжительность : 1 ч. 36 м.
Вид битрейта : Постоянный
Битрейт : 192 Кбит/сек
Каналы : 2 канала
Channel layout : L R
Частота : 48,0 КГц
Частота кадров : 31,250 кадров/сек (1536 SPF)
Метод сжатия : С потерями
Размер потока : 132 Мбайт (9%)
Выравнивание : Разделение по промежуткам
Продолжительность промежутка : 42 мс. (1,00 видеокадр)
Время предзагрузки промежутка : 500 мс.
Заголовок : eng
Service kind : Complete Main

Скриншоты


При появлении проф. озвучки, раздачу перезалью.
Профиль [ЛС]
Показать сообщения:    

Текущее время: 04-Дек 04:55

Часовой пояс: UTC ± 0



Вы не можете начинать темы
Вы не можете отвечать на сообщения
Вы не можете редактировать свои сообщения
Вы не можете удалять свои сообщения
Вы не можете голосовать в опросах
Вы не можете прикреплять файлы к сообщениям
Вы не можете скачивать файлы