Статистика раздачи
Нет
 
     
 
 

MAGNAT ®

Пол:
Мужской
Стаж:
1 год 8 месяцев
Сообщений:
9096

Ведьмы / The Witches
Страна: Мексика, США
Жанр: фэнтези, комедия, детектив, приключения, семейный
Год выпуска: 2020
Продолжительность: 01:44:12-Перевод: Любительский (многоголосый закадровый) | HDRezka Studio
Субтитры: русские (forced)
Оригинальная аудиодорожка: нет-Режиссер:
Роберт Земекис / Robert Zemeckis-В ролях: Энн Хэтэуэй, Октавия Спенсер, Стэнли Туччи, Крис Рок, Коди-Лей Истик, Чарльз Эдвардс, Моргана Робинсон, Джазир Бруно, Евгения Карузо, Саймон Маньонда-Описание: Ведьмы существуют, и они среди нас! Знаменитую книгу Даля заново откроют для современных зрителей. Визуально инновационные «Ведьмы» Земекиса расскажут полную мрачного юмора и в то же время трогательную историю юного сироты. В конце 1967 года мальчик переезжает к своей любимой бабушке в Демополис, сельский городок в Алабаме. Там они случайно сталкиваются с обманчиво обаятельными и дьявольски коварными ведьмами, поэтому бабуля мудро увозит нашего юного героя на роскошный морской курорт. Увы, они приезжают туда ровно тогда, когда Величайшая Самая Главная Ведьма собирает – конечно же, тайно – последовательниц со всего света, чтобы воплотить свои страшные злодейские планы.-Качество видео: WEB-DLRip
Формат видео: AVI
Видео: 720x304 (2.37:1), 23.976 fps, XviD build 73 ~1553 kbps avg, 0.30 bit/pixel
Аудио: 48 kHz, AC3 Dolby Digital, 3/2 (L,C,R,l,r) + LFE ch, ~448 kbps-

MediaInfo

Код:
Формат : AVI
Формат/Информация : Audio Video Interleave
Размер файла : 1,46 Гбайт
Продолжительность : 1 ч. 44 м.
Общий поток : 2 011 Кбит/сек
Название фильма : Ведьмы_2020_WEB-DLRip
Программа кодирования : VirtualDubMod 1.5.10.3 | www.virtualdub-fr.org || (build 2550/release)
Авторское право : порошков
Видео
Идентификатор : 0
Формат : MPEG-4 Visual
Профиль формата : Advanced Simple@L5
Настройки формата : BVOP1 / Custom Matrix
Параметр BVOP формата : 1
Параметр QPel формата : Нет
Параметр GMC формата : Без точки перехода
Параметр матрицы формата : Выборочная
Идентификатор кодека : XVID
Идентификатор кодека/Подсказка : XviD
Продолжительность : 1 ч. 44 м.
Битрейт : 1 554 Кбит/сек
Ширина : 720 пикселей
Высота : 304 пикселя
Соотношение сторон : 2,35:1
Частота кадров : 23,976 (24000/1001) кадра/сек
Цветовое пространство : YUV
Субдискретизация насыщенности : 4:2:0
Битовая глубина : 8 бит
Тип развёртки : Прогрессивная
Метод сжатия : С потерями
Бит/(Пиксели*Кадры) : 0.296
Размер потока : 1,13 Гбайт (77%)
Библиотека кодирования : XviD 73
Аудио
Идентификатор : 1
Формат : AC-3
Формат/Информация : Audio Coding 3
Коммерческое название : Dolby Digital
Идентификатор кодека : 2000
Продолжительность : 1 ч. 44 м.
Вид битрейта : Постоянный
Битрейт : 448 Кбит/сек
Каналы : 6 каналов
Channel layout : L R C LFE Ls Rs
Частота : 48,0 КГц
Частота кадров : 31,250 кадров/сек (1536 SPF)
Метод сжатия : С потерями
Размер потока : 334 Мбайт (22%)
Выравнивание : Разделение по промежуткам
Продолжительность промежутка : 42 мс. (1,00 видеокадр)
Время предзагрузки промежутка : 500 мс.
Service kind : Complete Main

Скриншоты


Профиль [ЛС]
Показать сообщения:    

Текущее время: 04-Дек 04:34

Часовой пояс: UTC ± 0



Вы не можете начинать темы
Вы не можете отвечать на сообщения
Вы не можете редактировать свои сообщения
Вы не можете удалять свои сообщения
Вы не можете голосовать в опросах
Вы не можете прикреплять файлы к сообщениям
Вы не можете скачивать файлы