Статистика раздачи
Нет
 
     
 
 

MAGNAT ®

Пол:
Мужской
Стаж:
1 год 8 месяцев
Сообщений:
9096

Борат 2 / Borat Subsequent Moviefilm
Страна: Великобритания, США
Жанр: комедия
Год выпуска: 2020
Продолжительность: 01:36:04
Перевод: Одноголосый закадровый feofanio
Субтитры: нет
Режиссер: Джейсон Уолинер / Jason Woliner
В ролях: Саша Барон Коэн, Мария Бакалова, Николета Чобану, Рудольф В. Джулиани, Луэнелль, Майк Пенс
Описание: Продолжение комедии 2006 года, в центре которой реальные приключения вымышленного казахстанского тележурналиста по имени Борат.
Качество видео: WEB-DLRip
Формат видео: AVI
Видео: XviD , 704x400, 16:9, 23.976 fps, 1 842 kb/s
Аудио: mp3, 44,1 kHz, 2 channels, 224 kbps

MediaInfo

General
Complete name : D:\Borat_2_2020_WEB-DLRip1390.avi
Format : AVI
Format/Info : Audio Video Interleave
File size : 1.39 GiB
Duration : 1 h 36 min
Overall bit rate : 2 079 kb/s
Video
ID : 0
Format : MPEG-4 Visual
Format profile : Simple@L0
Format settings : BVOP2
Format settings, BVOP : 2
Format settings, QPel : No
Format settings, GMC : No warppoints
Format settings, Matrix : Default (MPEG)
Codec ID : XVID
Codec ID/Hint : XviD
Duration : 1 h 36 min
Bit rate : 1 842 kb/s
Width : 704 pixels
Height : 400 pixels
Display aspect ratio : 16:9
Frame rate : 23.976 (24000/1001) FPS
Color space : YUV
Chroma subsampling : 4:2:0
Bit depth : 8 bits
Scan type : Progressive
Compression mode : Lossy
Bits/(Pixel*Frame) : 0.273
Stream size : 1.24 GiB (89%)
Writing library : XviD 67
Audio
ID : 1
Format : MPEG Audio
Format version : Version 1
Format profile : Layer 3
Codec ID : 55
Codec ID/Hint : MP3
Duration : 1 h 36 min
Bit rate mode : Constant
Bit rate : 224 kb/s
Channel(s) : 2 channels
Sampling rate : 44.1 kHz
Compression mode : Lossy
Stream size : 154 MiB (11%)
Alignment : Aligned on interleaves
Interleave, duration : 26 ms (0.63 video frame)

Скриншот c названием фильма

Скриншоты

Профиль [ЛС]
Показать сообщения:    

Текущее время: 04-Дек 05:00

Часовой пояс: UTC ± 0



Вы не можете начинать темы
Вы не можете отвечать на сообщения
Вы не можете редактировать свои сообщения
Вы не можете удалять свои сообщения
Вы не можете голосовать в опросах
Вы не можете прикреплять файлы к сообщениям
Вы не можете скачивать файлы