Статистика раздачи
Нет
 
     
 
 

MAGNAT ®

Пол:
Мужской
Стаж:
1 год 8 месяцев
Сообщений:
9096

Борат 2 / Borat Subsequent Moviefilm- Год выхода: 2020
Страна: Великобритания, США
Жанр: комедия
Продолжительность: 01:36:04
Перевод: СУБТИТРЫ
Субтитры: Русские, Английские (SDH) (внешние .srt*)
Оригинальная аудиодорожка: Английская-Режиссер:
Джейсон Уолинер / Jason Woliner-В ролях:
Саша Барон Коэн, Мария Бакалова, Николета Чобану, Рудольф В. Джулиани, Луэнелль, Майк Пенс-О фильме:
Продолжение комедии 2006 года, в центре которой реальные приключения вымышленного казахстанского тележурналиста по имени Борат.
Качество: WEB-DLRip
Формат: AVI
Видео: 704x400 (1.76:1), 23.976 fps, XviD build 69 ~1714 kbps avg, 0.25 bit/pixel
Аудио: 48 kHz, AC3 Dolby Digital, 3/2 (L,C,R,l,r) + LFE ch, ~448 kbps avg-

Скриншоты

-

MediaInfo

Код:Общее
Полное имя : D:\Borat_2_2020_WEB-DLRip_Sub_by_Dalemake.avi
Формат : AVI
Формат/Информация : Audio Video Interleave
Размер файла : 1,46 Гбайт
Продолжительность : 1 ч. 36 м.
Общий поток : 2172 Кбит/сек
Программа кодирования : VirtualDubMod 1.5.10.3 | www.virtualdub-fr.org || (build 2550/release)
Библиотека кодирования : VirtualDubMod build 2550/release
Видео
Идентификатор : 0
Формат : MPEG-4 Visual
Профиль формата : Advanced Simple@L5
Настройки формата : BVOP1 / Custom Matrix
Параметр BVOP формата : 1
Параметр QPel формата : Нет
Параметр GMC формата : Без точки перехода
Параметр матрицы формата : Выборочная
Идентификатор кодека : XVID
Идентификатор кодека/Подсказка : XviD
Продолжительность : 1 ч. 36 м.
Битрейт : 1715 Кбит/сек
Ширина : 704 пикселя
Высота : 400 пикселей
Соотношение сторон : 16:9
Частота кадров : 23,976 (24000/1001) кадра/сек
Частота кадров в оригинале : 23,976 (23976/1000) кадра/сек
Цветовое пространство : YUV
Субдискретизация насыщенности : 4:2:0
Битовая глубина : 8 бит
Тип развёртки : Прогрессивная
Метод сжатия : С потерями
Бит/(Пиксели*Кадры) : 0.254
Размер потока : 1,15 Гбайт (79%)
Библиотека кодирования : XviD 69
Аудио
Идентификатор : 1
Формат : AC-3
Формат/Информация : Audio Coding 3
Коммерческое название : Dolby Digital
Идентификатор кодека : 2000
Продолжительность : 1 ч. 36 м.
Вид битрейта : Постоянный
Битрейт : 448 Кбит/сек
Каналы : 6 каналов
ChannelLayout : L R C LFE Ls Rs
Частота : 48,0 КГц
Частота кадров : 31,250 кадров/сек (1536 SPF)
Битовая глубина : 16 бит
Метод сжатия : С потерями
Размер потока : 308 Мбайт (21%)
Выравнивание : Разделение по промежуткам
Продолжительность промежутка : 42 мс. (1,00 видеокадр)
Время предзагрузки промежутка : 500 мс.
ServiceKind/String : Complete Main

Пример субтитров

Код:245
00:15:38,813 --> 00:15:42,525
Официальное издание Министерства
сельского хозяйства и дикой природы.
246
00:15:43,985 --> 00:15:44,944
Постой...
247
00:15:45,028 --> 00:15:46,946
у тебя есть имя?
248
00:15:47,656 --> 00:15:48,698
Тутар.
249
00:15:50,492 --> 00:15:52,285
Мне нужна такая...
250
00:15:53,745 --> 00:15:57,040
Я знаю, где ее найти.
251
00:15:57,123 --> 00:15:58,625
«ФЕРМЕРСКИЕ ПРИПАСЫ БИЛЛА»
ВИСЯЧИЕ КОРЗИНКИ
252
00:15:58,708 --> 00:15:59,918
МАГАЗИН СКОБЯНЫХ ТОВАРОВ
253
00:16:05,757 --> 00:16:07,467
Я тебя обогнал!
254
00:16:09,219 --> 00:16:12,764
- Чем могу помочь?
- Я готовляй дочь на продажу.
255
00:16:13,473 --> 00:16:18,311
Ищу для нее подходящий клетка.
-
Профиль [ЛС]
Показать сообщения:    

Текущее время: 04-Дек 04:40

Часовой пояс: UTC ± 0



Вы не можете начинать темы
Вы не можете отвечать на сообщения
Вы не можете редактировать свои сообщения
Вы не можете удалять свои сообщения
Вы не можете голосовать в опросах
Вы не можете прикреплять файлы к сообщениям
Вы не можете скачивать файлы