Статистика раздачи
Нет
 
     
 
 

MAGNAT ®

Пол:
Мужской
Стаж:
1 год 8 месяцев
Сообщений:
9096

Суд над чикагской семеркой / The Trial of the Chicago 7- Год выхода: 2020
Страна: США, Великобритания, Индия
Жанр: триллер, биография, драма, история
Продолжительность: 02:10:10
Перевод: Любительский (многоголосый закадровый) HDRezka Studio
Субтитры: Русские (форсированные) (внешние .srt*)-Режиссер:
Робин Пронт / Robin Pront-В ролях:
Эдди Редмэйн, Саша Барон Коэн, Майкл Китон, Джозеф Гордон-Левитт, Марк Райлэнс, Фрэнк Ланджелла, Алекс Шарп, Джереми Стронг, Джон Кэрролл Линч, Яхья Абдул-Матин II, Бен Шенкман, Дж.С. МакКензи-О фильме:
Чикаго, 1968 год. Демонстрация против войны во Вьетнаме вылилась в стычки с полицией. Семь участников беспорядков предстают пред судом по обвинениям в заговоре против американского правительства.-Качество: WEB-DLRip
Формат: AVI
Видео: 720x304 (2.37:1), 24 fps, XviD build 69 ~1401 kbps avg, 0.27 bit/pixel
Аудио: 48 kHz, AC3 Dolby Digital, 2/0 (L,R) ch, ~192 kbps avg-

Скриншоты

-

MediaInfo

Код:Общее
Полное имя : D:\The_Trial_of_the_Chicago_7_2020_WEB-DLRip_MVO_by_Dalemake.avi
Формат : AVI
Формат/Информация : Audio Video Interleave
Размер файла : 1,46 Гбайт
Продолжительность : 2 ч. 10 м.
Общий поток : 1603 Кбит/сек
Программа кодирования : VirtualDubMod 1.5.10.3 | www.virtualdub-fr.org || (build 2550/release)
Библиотека кодирования : VirtualDubMod build 2550/release
Видео
Идентификатор : 0
Формат : MPEG-4 Visual
Профиль формата : Advanced Simple@L5
Настройки формата : BVOP1 / Custom Matrix
Параметр BVOP формата : 1
Параметр QPel формата : Нет
Параметр GMC формата : Без точки перехода
Параметр матрицы формата : Выборочная
Идентификатор кодека : XVID
Идентификатор кодека/Подсказка : XviD
Продолжительность : 2 ч. 10 м.
Битрейт : 1402 Кбит/сек
Ширина : 720 пикселей
Высота : 304 пикселя
Соотношение сторон : 2,35:1
Частота кадров : 24,000 кадра/сек
Цветовое пространство : YUV
Субдискретизация насыщенности : 4:2:0
Битовая глубина : 8 бит
Тип развёртки : Прогрессивная
Метод сжатия : С потерями
Бит/(Пиксели*Кадры) : 0.267
Размер потока : 1,27 Гбайт (87%)
Библиотека кодирования : XviD 69
Аудио
Идентификатор : 1
Формат : AC-3
Формат/Информация : Audio Coding 3
Коммерческое название : Dolby Digital
Идентификатор кодека : 2000
Продолжительность : 2 ч. 10 м.
Вид битрейта : Постоянный
Битрейт : 192 Кбит/сек
Каналы : 2 канала
ChannelLayout : L R
Частота : 48,0 КГц
Частота кадров : 31,250 кадров/сек (1536 SPF)
Битовая глубина : 16 бит
Метод сжатия : С потерями
Размер потока : 179 Мбайт (12%)
Выравнивание : Разделение по промежуткам
Продолжительность промежутка : 42 мс. (1,00 видеокадр)
Время предзагрузки промежутка : 500 мс.
ServiceKind/String : Complete Main
-
Профиль [ЛС]
Показать сообщения:    

Текущее время: 04-Дек 04:43

Часовой пояс: UTC ± 0



Вы не можете начинать темы
Вы не можете отвечать на сообщения
Вы не можете редактировать свои сообщения
Вы не можете удалять свои сообщения
Вы не можете голосовать в опросах
Вы не можете прикреплять файлы к сообщениям
Вы не можете скачивать файлы