Статистика раздачи
Нет
 
     
 
 

MAGNAT ®

Пол:
Мужской
Стаж:
1 год 8 месяцев
Сообщений:
9096

Форпост / The Outpost
Страна: США, Болгария
Жанр: боевик, военный, история
Год выпуска: 2020
Продолжительность: 02:03:15
Перевод: Профессиональный (дублированный) iTunes
Субтитры: нет
Режиссер: Род Лури / Rod Lurie
В ролях: Скотт Иствуд, Калеб Джонс, Орландо Блум, Селина Синден, Майло Гибсон, Джек Кеси, Джейкоб Скипио, Тейлор Джон Смит, Александр Арноль
Описание: 2006 год. Афганистан. У подножия гор, недалеко от поселения Кадмеш, расположился американский Форпост. Тай Картер и сержант Ромеш Клинтон имеют в своем распоряжении пятьдесят три бойца. Никто из них не ожидал, что им предстоит отбивать прорыв многочисленной банды талибов. Четыреста человек готовятся к наступлению, и солдаты просто не могут отдать позиции. Несмотря на неравные силы, бойцы готовы дать отпор, действуя строго по уставу. Им не приходится ждать помощи, поскольку следующая база слишком далека от них. Смогут ли они выполнить свой долг и отбить нападение, и какую цену им предстоит заплатить...?
Качество видео: BDRip [
Формат видео: AVI
Видео: XviD 73, 720x384, (1,85:1), 23.976 fps, 1297 Кбит/с, 8 бит, 0.20 bit/pixel
Аудио: Русский (АС3, 6 ch (Front: L C R, Side: L R, LFE), 48,0 KHz, 448 Kbps)

MediaInfo

Общее
Полное имя : D:\Фильмы на трекер\Форпост (боевик, военный, история 2020 год).avi
Формат : AVI
Формат/Информация : Audio Video Interleave
Размер файла : 1,45 Гбайт
Продолжительность : 2 ч. 3 м.
Общий поток : 1690 Кбит/сек
Программа кодирования : VirtualDubMod 1.5.10.2 (build 2540/release)
Библиотека кодирования : VirtualDubMod build 2540/release
Видео
Идентификатор : 0
Формат : MPEG-4 Visual
Профиль формата : Advanced Simple@L5
Параметр BVOP формата : 2
Параметр QPel формата : Нет
Параметр GMC формата : Без точки перехода
Параметр матрицы формата : Выборочная
Идентификатор кодека : XVID
Идентификатор кодека/Подсказка : XviD
Продолжительность : 2 ч. 3 м.
Битрейт : 1297 Кбит/сек
Ширина : 720 пикселей
Высота : 384 пикселя
Соотношение сторон : 1,85:1
Частота кадров : 23,976 (23976/1000) кадра/сек
Цветовое пространство : YUV
Субдискретизация насыщенности : 4:2:0
Битовая глубина : 8 бит
Тип развёртки : Прогрессивная
Метод сжатия : С потерями
Бит/(Пиксели*Кадры) : 0.196
Размер потока : 1,12 Гбайт (77%)
Библиотека кодирования : XviD 73
Аудио
Идентификатор : 1
Формат : AC-3
Формат/Информация : Audio Coding 3
Расширение режима : CM (complete main)
Параметр Endianness формата : Big
Идентификатор кодека : 2000
Продолжительность : 2 ч. 3 м.
Вид битрейта : Постоянный
Битрейт : 384 Кбит/сек
Каналы : 6 каналов
Расположение каналов : Front: L C R, Side: L R, LFE
Частота : 48,0 КГц
Частота кадров : 31,250 кадров/сек (1536 spf)
Метод сжатия : С потерями
Размер потока : 338 Мбайт (23%)
Выравнивание : Разделение по промежуткам
Продолжительность промежутка : 42 мс. (1,00 видеокадр)
Время предзагрузки промежутка : 500 мс.

Скриншот c названием фильма

Скриншоты

Профиль [ЛС]
Показать сообщения:    

Текущее время: 04-Дек 04:26

Часовой пояс: UTC ± 0



Вы не можете начинать темы
Вы не можете отвечать на сообщения
Вы не можете редактировать свои сообщения
Вы не можете удалять свои сообщения
Вы не можете голосовать в опросах
Вы не можете прикреплять файлы к сообщениям
Вы не можете скачивать файлы