Статистика раздачи
Размер:  2,5 GB   |    Зарегистрирован:  8 месяцев   |    Скачан:  0 раз

Полного источника не было: Никогда

Личеров:  1  [  0 KB/s  ]  
 
   
 
 

soda ®

Пол:
Не указан
Стаж:
8 месяцев 1 день
Сообщений:
230

Святой Сейя: Легенда о Святилище / Saint Seiya: Legend of Sanctuary
Страна: Япония
Год выпуска: 2014 г.
Жанр: приключения, фэнтези
Тип: Movie
Продолжительность: 93 мин
Режиссер: Сато Кэйити
Студия: Toei Animation
Описание: Описание: Кидо Саори, с рождения обладающая мистической силой, в день своего шестнадцатилетия узнает, что является воплощением богини Афины. С этого момента ее жизнь наполняется невероятными событиями. Загадочное Святилище под управлением Святого отца отправляет подручных, дабы те избавились от самозванки, что выдает себя за Афину. Но на помощь Саори приходят юные Бронзовые Святые – воины, что со времен мифов всегда защищали Афину.
Чтобы узнать всю правду о себе и остановить тех, кто пытается убить ее, тем самым нарушить гармонию во Вселенной, Саори и верные ей до самого конца Бронзовые Святых – Сейя, Хёга, Шун, Сирю и Икки, – отправляются в Святилище. Им предстоит пройти 12 Храмов Зодиака, сразившись с сильнейшими Золотыми Святыми, и спасти Афину вместе со всем миром!
Качество: BDRip
Тип релиза: Без хардсаба
Формат видео: MKV
Наличие линковки: Нет
Релиз/Автор рипа: [ROC]
Видео: AVC (H264) 1280x536 (2.35), 23.976 fps, 3600 Kbps, 8-bit
Аудио: Dolby AC3, 160 Kbps, 48.0 КHz, 2 channels Язык Японский
Субтитры: *.ass, внешние Язык субтитров русский ; Перевод: Hiisoto; редакция Raven, Ay_16r

Подробные тех. данные

General
Unique ID : 188794202112821782774282359799820206427 (0x8E0870D2DE0008B0AC5492AD693A415B)
Complete name : D:\Anime\***\Saint Seiya Legend of Sanctuary.mkv
Format : Matroska
Format version : Version 2
File size : 2.50 GiB
Duration : 1h 32mn
Overall bit rate : 3 858 Kbps
Encoded date : UTC 2014-12-10 16:33:17
Writing application : mkvmerge v5.8.0 ('No Sleep / Pillow') built on Sep 2 2012 15:37:04
Writing library : libebml v1.2.3 + libmatroska v1.3.0
Video
ID : 1
Format : AVC
Format/Info : Advanced Video Codec
Format profile : High@L3.1
Format settings, CABAC : Yes
Format settings, ReFrames : 4 frames
Codec ID : V_MPEG4/ISO/AVC
Duration : 1h 32mn
Bit rate : 3 622 Kbps
Width : 1 280 pixels
Height : 536 pixels
Display aspect ratio : 2.40:1
Frame rate : 23.976 fps
Color space : YUV
Chroma subsampling : 4:2:0
Bit depth : 8 bits
Scan type : Progressive
Bits/(Pixel*Frame) : 0.220
Stream size : 2.34 GiB (94%)
Writing library : x264 core 125 r2208 d9d2288
Encoding settings : cabac=1 / ref=4 / deblock=1:-1:1 / analyse=0x3:0x133 / me=esa / subme=10 / psy=1 / psy_rd=0.40:0.00 / mixed_ref=1 / me_range=16 / chroma_me=1 / trellis=2 / 8x8dct=1 / cqm=0 / deadzone=21,11 / fast_pskip=1 / chroma_qp_offset=-2 / threads=12 / lookahead_threads=2 / sliced_threads=0 / nr=0 / decimate=1 / interlaced=0 / bluray_compat=0 / constrained_intra=0 / bframes=10 / b_pyramid=2 / b_adapt=2 / b_bias=0 / direct=3 / weightb=1 / open_gop=0 / weightp=2 / keyint=250 / keyint_min=23 / scenecut=40 / intra_refresh=0 / rc_lookahead=60 / rc=crf / mbtree=1 / crf=15.0 / qcomp=0.60 / qpmin=0 / qpmax=69 / qpstep=4 / ip_ratio=1.40 / aq=1:0.60
Default : Yes
Forced : No
Matrix coefficients : BT.709-5, BT.1361, IEC 61966-2-4 709, SMPTE RP177
Audio
ID : 2
Format : AC-3
Format/Info : Audio Coding 3
Mode extension : CM (complete main)
Format settings, Endianness : Big
Codec ID : A_AC3
Duration : 1h 32mn
Bit rate mode : Constant
Bit rate : 160 Kbps
Channel(s) : 2 channels
Channel positions : Front: L R
Sampling rate : 48.0 KHz
Bit depth : 16 bits
Compression mode : Lossy
Stream size : 106 MiB (4%)
Default : Yes
Forced : No

Скриншоты

[cybertorrent.ru].t2163.torrent 
Торрент: Зарегистрирован [ 2018-02-16 11:35 ] · 3AD7CD60306D03A7041BF9123ED161733680D739

Скачать .torrent

Скачать

14 KB

Статус: проверено
Скачан: 0 раз
Размер: 2,5 GB
Профиль [ЛС]
Показать сообщения:    

Текущее время: 17-Окт 01:40

Часовой пояс: UTC ± 0



Вы не можете начинать темы
Вы не можете отвечать на сообщения
Вы не можете редактировать свои сообщения
Вы не можете удалять свои сообщения
Вы не можете голосовать в опросах
Вы не можете прикреплять файлы к сообщениям
Вы можете скачивать файлы
Torrents24.ru открытый BitTorrent Torrents24.pl открытый BitTorrent CyberTorrent.ru открытый BitTorrent BtList.ru рейтинг BitTorrent трекеров Яндекс.Метрика