Статистика раздачи
Нет
 
     
 
 

K15 ®

Пол:
Мужской
Стаж:
10 месяцев 12 дней
Сообщений:
235

Информация о фильме
Название: Клаустрофобы: Квест в Москве
Оригинальное название: Follow Me
Год выхода: 2020
Жанр: Ужасы, триллер
Режиссер: Уилл Верник
В ролях: Кигэн Аллен, Холлэнд Роден, Дензел Уитакер, Ронен Рубинштейн, Павел Лычников, Джордж Янко, Сия, Данияр, Димитар Маринов, Эмилия Арес Зорян

Популярный американский видеоблогер Коул сделал имя на участии в самых зрелищных и опасных испытаниях, которые он находит по всему миру. На 10-летие своего канала он непременно хочет устроить что-нибудь особенное, и друзья предлагают ему пройти необычный квест в Москве. Поначалу Коул настроен скептически. Квест? Кого этим сейчас можно удивить? Узнав, что данные испытания разработали специально для него, парень воодушевляется, но квест окажется намного страшнее, чем он мог предположить.

Страна: США
Студия: Escape Productions
Продолжительность: 01:32:02
Перевод: Дубляж iTunes
Файл
Кодек: H.264
Качество: BDRip 720p
Видео: 1280x536 (2.40:1), 3228 kbps, 23.976 fps
Звук: Русский (AC-3, 6ch, 384 kbps)
Английский (AC3, 6ch, 640 kbps)
Субтитры: английские

MI

x264 [info]: frame I:1382 Avg QP:13.14 size: 87479
x264 [info]: frame P:28555 Avg QP:14.90 size: 33284
x264 [info]: frame B:102469 Avg QP:17.20 size: 11290
x264 [info]: consecutive B-frames: 2.7% 2.8% 8.6% 16.1% 18.1% 37.4% 6.4% 1.7% 2.2% 2.0% 1.9%
General
Unique ID : 274638660365675221121661774881426493190 (0xCE9D7B6398962729345426DA3217CF06)
Complete name : F:КИНОРУТОРКлаустрофобы. Квест в Москве.BDRip 720p.mkv
Format : Matroska
Format version : Version 4
File size : 2.73 GiB
Duration : 1 h 32 min
Overall bit rate : 4 254 kb/s
Movie name : Клаустрофобы: Квест в Москве / Follow Me (2020) - #LORDKILL#
Encoded date : UTC 2020-10-30 13:11:43
Writing application : mkvmerge v32.0.0 ('Astral Progressions') 64-bit
Writing library : libebml v1.3.7 + libmatroska v1.5.0
Cover : Yes
Attachments : cover.jpg
Video
ID : 1
Format : AVC
Format/Info : Advanced Video Codec
Format profile : Main@L4.1
Format settings : CABAC / 12 Ref Frames
Format settings, CABAC : Yes
Format settings, Reference : 12 frames
Codec ID : V_MPEG4/ISO/AVC
Duration : 1 h 32 min
Bit rate : 3 228 kb/s
Width : 1 280 pixels
Height : 536 pixels
Display aspect ratio : 2.40:1
Frame rate mode : Constant
Frame rate : 23.976 (24000/1001) FPS
Color space : YUV
Chroma subsampling : 4:2:0
Bit depth : 8 bits
Scan type : Progressive
Bits/(Pixel*Frame) : 0.196
Stream size : 2.08 GiB (76%)
Writing library : x264 core 157 r2935 545de2f
Encoding settings : cabac=1 / ref=12 / deblock=1:0:0 / analyse=0x1:0x131 / me=umh / subme=10 / psy=1 / psy_rd=1.20:0.20 / mixed_ref=1 / me_range=32 / chroma_me=1 / trellis=2 / 8x8dct=0 / cqm=0 / deadzone=21,11 / fast_pskip=1 / chroma_qp_offset=-3 / threads=12 / lookahead_threads=3 / sliced_threads=0 / nr=0 / decimate=1 / interlaced=0 / bluray_compat=0 / constrained_intra=0 / bframes=10 / b_pyramid=2 / b_adapt=2 / b_bias=0 / direct=3 / weightb=1 / open_gop=0 / weightp=2 / keyint=240 / keyint_min=23 / scenecut=40 / intra_refresh=0 / rc_lookahead=60 / rc=crf / mbtree=0 / crf=18.5 / qcomp=0.60 / qpmin=0 / qpmax=69 / qpstep=4 / vbv_maxrate=50000 / vbv_bufsize=62500 / crf_max=0.0 / nal_hrd=none / filler=0 / ip_ratio=1.40 / pb_ratio=1.30 / aq=1:1.00
Default : Yes
Forced : No
Color range : Limited
Color primaries : BT.709
Transfer characteristics : BT.709
Matrix coefficients : BT.709
Audio #1
ID : 2
Format : AC-3
Format/Info : Audio Coding 3
Commercial name : Dolby Digital
Codec ID : A_AC3
Duration : 1 h 32 min
Bit rate mode : Constant
Bit rate : 384 kb/s
Channel(s) : 6 channels
Channel layout : L R C LFE Ls Rs
Sampling rate : 48.0 kHz
Frame rate : 31.250 FPS (1536 SPF)
Compression mode : Lossy
Delay relative to video : -5 ms
Stream size : 253 MiB (9%)
Title : Дубляж (iTunes)
Language : Russian
Service kind : Complete Main
Default : No
Forced : Yes
Audio #2
ID : 3
Format : AC-3
Format/Info : Audio Coding 3
Commercial name : Dolby Digital
Codec ID : A_AC3
Duration : 1 h 32 min
Bit rate mode : Constant
Bit rate : 640 kb/s
Channel(s) : 6 channels
Channel layout : L R C LFE Ls Rs
Sampling rate : 48.0 kHz
Frame rate : 31.250 FPS (1536 SPF)
Compression mode : Lossy
Delay relative to video : -5 ms
Stream size : 421 MiB (15%)
Language : English
Service kind : Complete Main
Default : Yes
Forced : No
Text
ID : 4
Format : UTF-8
Codec ID : S_TEXT/UTF8
Codec ID/Info : UTF-8 Plain Text
Duration : 1 h 27 min
Bit rate : 68 b/s
Count of elements : 1594
Stream size : 43.5 KiB (0%)
Title : SDH
Language : English
Default : No
Forced : No
Menu
00:00:00.000 : en:Chapter 1
00:08:20.708 : en:Chapter 2
00:16:59.809 : en:Chapter 3
00:25:56.053 : en:Chapter 4
00:31:57.873 : en:Chapter 5
00:39:01.296 : en:Chapter 6
00:46:47.012 : en:Chapter 7
00:53:13.940 : en:Chapter 8
00:59:23.976 : en:Chapter 9
01:07:08.774 : en:Chapter 10
01:14:31.049 : en:Chapter 11
01:26:27.765 : en:Chapter 12

Скриншоты

Профиль [ЛС]
Показать сообщения:    

Текущее время: 04-Дек 04:35

Часовой пояс: UTC ± 0



Вы не можете начинать темы
Вы не можете отвечать на сообщения
Вы не можете редактировать свои сообщения
Вы не можете удалять свои сообщения
Вы не можете голосовать в опросах
Вы не можете прикреплять файлы к сообщениям
Вы не можете скачивать файлы