Статистика раздачи
Нет
 
     
 
 

K15 ®

Пол:
Мужской
Стаж:
10 месяцев 12 дней
Сообщений:
235

Информация о фильме
Название: Звонок из подземелья
Оригинальное название: The Call
Год выхода: 2020
Жанр: Ужасы
Режиссер: Тимоти Вудворд мл.
В ролях: Лин Шэй, Тобин Белл, Честер Рашинг, Эрин Сандерс, Майк К. Мэннинг, Слоун Морган Сигел, Джудд Лорманд, Рэнди Дж. Гудвин, Бруклин Энн Миллер, Леа Контрерас
Описание: После покушения на убийство пожилой женщины, подозреваемой в том, что она ведьма, четверо друзей подписывают контракт встретиться через пять лет после ее смерти, чтобы позвонить по телефону, который она положила себе в гроб. К их ужасу кто-то на другом конце берет трубку.

Страна: США
Студия: Single Malt Productions, Appreciated Films, BondIt Media Capital
Продолжительность: 01:37:20
Перевод: Любительский (многоголосый, закадровый) - @MUZOBOZ@


Информация о файле
Кодек: AVC
Формат: MKV
Качество: WEB-DLRip-AVC
Видео: MPEG-4 AVC, 1024x426 (2.40:1), 23.976 fps, 1923 kb/s, 0.184
Аудио RU: AC3, 2 ch, 48 kHz, 192 kbps
Субтитры: Английские
Навигация по главам: Нет

MediaInfo

x264 info: frame I:1012 Avg QP:12.22 size: 57939
x264 info: frame P:32893 Avg QP:15.03 size: 20666
x264 info: frame B:106073 Avg QP:17.12 size: 6259
x264 info: consecutive B-frames: 2.1% 2.5% 4.9% 48.0% 15.1% 20.4% 2.6% 1.6% 0.4% 0.4% 0.3% 1.7%
================================
General
Unique ID : 57282877954795787968407012624000966468 (0x2B1847EF50384E1693F6166C5BAD5F44)
Complete name : D:uTorrentРипы_от_wolf1245_MediaBitThe Call (2020) from wolf1245 & MediaBit.mkv
Format : Matroska
Format version : Version 4
File size : 1.44 GiB
Duration : 1 h 37 min
Overall bit rate : 2 115 kb/s
Movie name : The Call (2020) from wolf1245 & MediaBit
Encoded date : UTC 2020-11-01 07:59:04
Writing application : mkvmerge v51.0.0 ('I Wish') 64-bit
Writing library : libebml v1.4.0 + libmatroska v1.6.2
Video
ID : 1
Format : AVC
Format/Info : Advanced Video Codec
Format profile : High@L4.1
Format settings : CABAC / 11 Ref Frames
Format settings, CABAC : Yes
Format settings, Reference frames : 11 frames
Codec ID : V_MPEG4/ISO/AVC
Duration : 1 h 37 min
Bit rate : 1 923 kb/s
Width : 1 024 pixels
Height : 426 pixels
Display aspect ratio : 2.40:1
Frame rate mode : Constant
Frame rate : 23.976 (24000/1001) FPS
Color space : YUV
Chroma subsampling : 4:2:0
Bit depth : 8 bits
Scan type : Progressive
Bits/(Pixel*Frame) : 0.184
Stream size : 1.31 GiB (91%)
Title : wolf1245 & MediaBit
Writing library : x264 core 157 r2958 57baac4
Encoding settings : cabac=1 / ref=11 / deblock=1:-3:-3 / analyse=0x3:0x133 / me=umh / subme=11 / psy=1 / psy_rd=1.03:0.03 / mixed_ref=1 / me_range=48 / chroma_me=1 / trellis=2 / 8x8dct=1 / cqm=0 / deadzone=21,11 / fast_pskip=0 / chroma_qp_offset=-3 / threads=10 / lookahead_threads=2 / sliced_threads=0 / nr=0 / decimate=0 / interlaced=0 / bluray_compat=0 / constrained_intra=0 / bframes=11 / b_pyramid=2 / b_adapt=2 / b_bias=0 / direct=3 / weightb=1 / open_gop=0 / weightp=2 / keyint=240 / keyint_min=24 / scenecut=40 / intra_refresh=0 / rc_lookahead=60 / rc=2pass / mbtree=0 / bitrate=1923 / ratetol=1.0 / qcomp=0.60 / qpmin=0 / qpmax=69 / qpstep=4 / cplxblur=20.0 / qblur=0.5 / vbv_maxrate=50000 / vbv_bufsize=62500 / nal_hrd=none / filler=0 / ip_ratio=1.40 / pb_ratio=1.30 / aq=2:0.80
Language : English
Default : Yes
Forced : No
Color range : Limited
Color primaries : BT.709
Transfer characteristics : BT.709
Matrix coefficients : BT.709
Audio
ID : 2
Format : AC-3
Format/Info : Audio Coding 3
Commercial name : Dolby Digital
Codec ID : A_AC3
Duration : 1 h 37 min
Bit rate mode : Constant
Bit rate : 192 kb/s
Channel(s) : 2 channels
Channel layout : L R
Sampling rate : 48.0 kHz
Frame rate : 31.250 FPS (1536 SPF)
Compression mode : Lossy
Stream size : 134 MiB (9%)
Title : MVO [@MUZOBOZ@] MediaBit
Language : Russian
Service kind : Complete Main
Default : Yes
Forced : No
Text
ID : 3
Format : UTF-8
Codec ID : S_TEXT/UTF8
Codec ID/Info : UTF-8 Plain Text
Duration : 1 h 29 min
Bit rate : 30 b/s
Count of elements : 893
Stream size : 20.0 KiB (0%)
Language : English
Default : No
Forced : No
Релиз от: & &
Профиль [ЛС]
Показать сообщения:    

Текущее время: 04-Дек 04:39

Часовой пояс: UTC ± 0



Вы не можете начинать темы
Вы не можете отвечать на сообщения
Вы не можете редактировать свои сообщения
Вы не можете удалять свои сообщения
Вы не можете голосовать в опросах
Вы не можете прикреплять файлы к сообщениям
Вы не можете скачивать файлы