Статистика раздачи
Нет
 
     
 
 

K15 ®

Пол:
Мужской
Стаж:
10 месяцев 12 дней
Сообщений:
235

Информация о фильме
Название: Галерея разбитых сердец
Оригинальное название: The Broken Hearts Gallery
Год выхода: 2020
Жанр: Мелодрама, комедия
Режиссер: Натали Крински
В ролях: Джеральдин Вишванатан, Дэйкер Монтгомери, Уткарш Амбудкар, Молли Гордон, Филлипа Су, Сьюки Уотерхаус, Шейла Маккарти, Бернадетт Питерс, Нэйтан Дэйлз, Эго Нводим

О фильме: Люси с трудом забывает о прошлых отношениях, оставляя на память разные сувениры. Однажды она случайно знакомится с Ником, который помогает ей разобраться с прошлым и организовать «Галерею разбитых сердец» — открытое пространство, где каждый желающий может оставить предметы, связанные с неудавшимися отношениями.
Страна: США, Канада
Студия: No Trace Camping, Kicked to the Curb Productions
Продолжительность: 01:48:50
Перевод: Профессиональный многоголосый | iTunes
Качество: WEB-DL 1080p
Видео: MPEG-4 AVC, 1920x1080, 7287 Kbit/s, 23.976 fps
Аудио #01: 48 kHz, AC3, 5.1, 384 Kbps | iTunes | RUS |
Аудио #02: 48 kHz, AC3, 5.1, 384 Kbps | Оригинал | ENG |
Субтитры: Русские (Full), английские

MI

General
Unique ID : 237639012241584067393929131145896774216 (0xB2C79BE500E9F37C46D1C29EA951CA48)
Complete name : D:Video111The.Broken.Hearts.Gallery.2020.WEB-DL.1080p.seleZen.mkv
Format : Matroska
Format version : Version 4
File size : 6.13 GiB
Duration : 1 h 48 min
Overall bit rate : 8 058 kb/s
Movie name : The Broken Hearts Gallery 2020 from seleZen
Encoded date : UTC 2020-11-17 14:40:16
Writing application : mkvmerge v40.0.0 ('Old Town Road + Pony') 64-bit
Writing library : libebml v1.3.9 + libmatroska v1.5.2
Video
ID : 1
Format : AVC
Format/Info : Advanced Video Codec
Format profile : High@L4
Format settings : CABAC / 2 Ref Frames
Format settings, CABAC : Yes
Format settings, Reference : 2 frames
Codec ID : V_MPEG4/ISO/AVC
Duration : 1 h 48 min
Bit rate : 7 287 kb/s
Width : 1 920 pixels
Height : 1 080 pixels
Display aspect ratio : 16:9
Frame rate mode : Constant
Frame rate : 23.976 (24000/1001) FPS
Color space : YUV
Chroma subsampling : 4:2:0
Bit depth : 8 bits
Scan type : Progressive
Bits/(Pixel*Frame) : 0.147
Stream size : 5.54 GiB (90%)
Writing library : x264 core 155 r2901 7d0ff22
Language : English
Default : Yes
Forced : No
Color range : Limited
Color primaries : BT.709
Transfer characteristics : BT.709
Matrix coefficients : BT.709
Audio #1
ID : 2
Format : AC-3
Format/Info : Audio Coding 3
Commercial name : Dolby Digital
Codec ID : A_AC3
Duration : 1 h 48 min
Bit rate mode : Constant
Bit rate : 384 kb/s
Channel(s) : 6 channels
Channel layout : L R C LFE Ls Rs
Sampling rate : 48.0 kHz
Frame rate : 31.250 FPS (1536 SPF)
Compression mode : Lossy
Stream size : 299 MiB (5%)
Language : Russian
Service kind : Complete Main
Default : Yes
Forced : Yes
Audio #2
ID : 3
Format : AC-3
Format/Info : Audio Coding 3
Commercial name : Dolby Digital
Codec ID : A_AC3
Duration : 1 h 48 min
Bit rate mode : Constant
Bit rate : 384 kb/s
Channel(s) : 6 channels
Channel layout : L R C LFE Ls Rs
Sampling rate : 48.0 kHz
Frame rate : 31.250 FPS (1536 SPF)
Compression mode : Lossy
Stream size : 299 MiB (5%)
Language : English
Service kind : Complete Main
Default : No
Forced : No
Text #1
ID : 4
Format : UTF-8
Codec ID : S_TEXT/UTF8
Codec ID/Info : UTF-8 Plain Text
Duration : 1 h 44 min
Bit rate : 143 b/s
Count of elements : 1778
Stream size : 110 KiB (0%)
Language : Russian
Default : No
Forced : No
Text #2
ID : 5
Format : UTF-8
Codec ID : S_TEXT/UTF8
Codec ID/Info : UTF-8 Plain Text
Duration : 1 h 44 min
Bit rate : 83 b/s
Count of elements : 1641
Stream size : 64.0 KiB (0%)
Language : English
Default : No
Forced : No
Релиз: Присоединяйся к:
Профиль [ЛС]
Показать сообщения:    

Текущее время: 04-Дек 04:27

Часовой пояс: UTC ± 0



Вы не можете начинать темы
Вы не можете отвечать на сообщения
Вы не можете редактировать свои сообщения
Вы не можете удалять свои сообщения
Вы не можете голосовать в опросах
Вы не можете прикреплять файлы к сообщениям
Вы не можете скачивать файлы