Статистика раздачи
Нет
 
     
 
 

K15 ®

Пол:
Мужской
Стаж:
10 месяцев 12 дней
Сообщений:
235

Информация о фильме
Название: Новые мутанты / Люди Икс: Новые мутанты
Оригинальное название: The New Mutants
Год выхода: 2020
Жанр: Ужасы, фантастика, боевик, комикс, супергерой
Режиссер: Джош Бун
В ролях: Мэйси Уильямс, Аня Тейлор-Джой, Чарли Хитон, Алиси Брага, Блю Хант, Генри Зага, Адам Бич, Томас Ки, Колби Ганнетт, Хэппи Андерсон

О фильме: Пятерых юных мутантов против их воли держат на секретном объекте в полной изоляции. Неожиданно вокруг них начинают твориться странные и пугающие происшествия, и герои оказываются в ситуации, требующей от них объединиться и приложить все свои умения ради собственного спасения.
Страна: США
Студия: 20th Century Studios, Marvel Entertainment, Twentieth Century Fox
Продолжительность: 01:34:04
Перевод: Дублированный | iTunes
Качество: BDRip 720p
Видео: MPEG-4 AVC, 1280x692, 7000 Kbit/s, 23.976 fps
Аудио #01: 48 kHz, AC3, 5.1, 384 Kbps | iTunes | RUS |
Аудио #02: 48 kHz, AC3, 5.1, 640 Kbps | Оригинал | ENG |
Субтитры: Русские (Full), английские

MI

General
Unique ID : 217161947575336634757471953881179419719 (0xA35FDEA8B38F70CA097E84EA6904F447)
Complete name : D:Video111The.New.Mutants.2020.BDRip.720p.seleZen.mkv
Format : Matroska
Format version : Version 4
File size : 5.27 GiB
Duration : 1 h 34 min
Overall bit rate : 8 023 kb/s
Movie name : The New Mutants 2020 from seleZen
Encoded date : UTC 2020-11-18 16:14:41
Writing application : mkvmerge v40.0.0 ('Old Town Road + Pony') 64-bit
Writing library : libebml v1.3.9 + libmatroska v1.5.2
Video
ID : 1
Format : AVC
Format/Info : Advanced Video Codec
Format profile : High@L4.1
Format settings : CABAC / 9 Ref Frames
Format settings, CABAC : Yes
Format settings, Reference : 9 frames
Codec ID : V_MPEG4/ISO/AVC
Duration : 1 h 34 min
Bit rate : 7 000 kb/s
Width : 1 280 pixels
Height : 692 pixels
Display aspect ratio : 1.85:1
Frame rate mode : Constant
Frame rate : 23.976 (24000/1001) FPS
Color space : YUV
Chroma subsampling : 4:2:0
Bit depth : 8 bits
Scan type : Progressive
Bits/(Pixel*Frame) : 0.330
Stream size : 4.60 GiB (87%)
Title : iFT
Writing library : x264 core 161 r3018+53 ~ Encoded by Mocunaman in Portugal
Encoding settings : cabac=1 / ref=9 / deblock=1:-3:-3 / analyse=0x3:0x133 / me=umh / subme=11 / psy=1 / fade_compensate=0.00 / psy_rd=1.00:0.00 / mixed_ref=1 / me_range=32 / chroma_me=1 / trellis=2 / 8x8dct=1 / cqm=0 / deadzone=21,11 / fast_pskip=0 / chroma_qp_offset=-2 / threads=22 / lookahead_threads=3 / sliced_threads=0 / nr=0 / decimate=0 / interlaced=0 / bluray_compat=0 / constrained_intra=0 / fgo=0 / bframes=8 / b_pyramid=2 / b_adapt=2 / b_bias=0 / direct=3 / weightb=1 / open_gop=0 / weightp=2 / keyint=250 / keyint_min=23 / scenecut=40 / intra_refresh=0 / rc=2pass / mbtree=0 / bitrate=7000 / ratetol=1.0 / qcomp=0.65 / qpmin=0:0:0 / qpmax=69:69:69 / qpstep=4 / cplxblur=20.0 / qblur=0.5 / ip_ratio=1.30 / pb_ratio=1.20 / aq=3:0.85 / aq-sensitivity=10.00 / aq-factor=1.00:1.00:1.00 / aq2=0 / aq3=0 / zones=0,16754,b=1.3/27506,45194,b=1.3/48146,75098,b=1.5/77379,79803,b=1.2/97324,97509,b=1.3/81267,121563,b=1.3
Language : English
Default : Yes
Forced : No
Color range : Limited
Matrix coefficients : BT.709
Audio #1
ID : 2
Format : AC-3
Format/Info : Audio Coding 3
Commercial name : Dolby Digital
Codec ID : A_AC3
Duration : 1 h 34 min
Bit rate mode : Constant
Bit rate : 384 kb/s
Channel(s) : 6 channels
Channel layout : L R C LFE Ls Rs
Sampling rate : 48.0 kHz
Frame rate : 31.250 FPS (1536 SPF)
Compression mode : Lossy
Stream size : 258 MiB (5%)
Title : iTunes
Language : Russian
Service kind : Complete Main
Default : Yes
Forced : Yes
Audio #2
ID : 3
Format : AC-3
Format/Info : Audio Coding 3
Commercial name : Dolby Digital
Codec ID : A_AC3
Duration : 1 h 34 min
Bit rate mode : Constant
Bit rate : 640 kb/s
Channel(s) : 6 channels
Channel layout : L R C LFE Ls Rs
Sampling rate : 48.0 kHz
Frame rate : 31.250 FPS (1536 SPF)
Compression mode : Lossy
Stream size : 431 MiB (8%)
Title : Original
Language : English
Service kind : Complete Main
Default : No
Forced : No
Text #1
ID : 4
Format : UTF-8
Codec ID : S_TEXT/UTF8
Codec ID/Info : UTF-8 Plain Text
Duration : 1 h 26 min
Bit rate : 68 b/s
Count of elements : 993
Stream size : 43.3 KiB (0%)
Title : Full
Language : Russian
Default : No
Forced : No
Text #2
ID : 5
Format : UTF-8
Codec ID : S_TEXT/UTF8
Codec ID/Info : UTF-8 Plain Text
Duration : 1 h 26 min
Bit rate : 39 b/s
Count of elements : 1031
Stream size : 25.1 KiB (0%)
Title : Full
Language : English
Default : No
Forced : No
Text #3
ID : 6
Format : UTF-8
Codec ID : S_TEXT/UTF8
Codec ID/Info : UTF-8 Plain Text
Duration : 1 h 26 min
Bit rate : 50 b/s
Count of elements : 1343
Stream size : 32.1 KiB (0%)
Title : SDH
Language : English
Default : No
Forced : No
Menu
00:00:00.000 : en:Chapter 01
00:02:39.951 : en:Chapter 02
00:08:07.737 : en:Chapter 03
00:10:53.862 : en:Chapter 04
00:14:33.039 : en:Chapter 05
00:17:23.918 : en:Chapter 06
00:19:53.067 : en:Chapter 07
00:23:41.879 : en:Chapter 08
00:27:54.590 : en:Chapter 09
00:30:30.078 : en:Chapter 10
00:33:26.588 : en:Chapter 11
00:39:36.791 : en:Chapter 12
00:43:12.965 : en:Chapter 13
00:47:53.287 : en:Chapter 14
00:50:35.157 : en:Chapter 15
00:52:12.254 : en:Chapter 16
00:55:28.825 : en:Chapter 17
00:57:13.055 : en:Chapter 18
01:00:17.113 : en:Chapter 19
01:02:37.754 : en:Chapter 20
01:06:36.367 : en:Chapter 21
01:11:12.101 : en:Chapter 22
01:13:44.462 : en:Chapter 23
01:15:07.878 : en:Chapter 24
01:18:57.107 : en:Chapter 25
01:21:52.366 : en:Chapter 26
01:24:32.276 : en:Chapter 27
01:26:46.201 : en:Chapter 28
Релиз: Присоединяйся к:
Профиль [ЛС]
Показать сообщения:    

Текущее время: 04-Дек 04:31

Часовой пояс: UTC ± 0



Вы не можете начинать темы
Вы не можете отвечать на сообщения
Вы не можете редактировать свои сообщения
Вы не можете удалять свои сообщения
Вы не можете голосовать в опросах
Вы не можете прикреплять файлы к сообщениям
Вы не можете скачивать файлы