Статистика раздачи
Размер:  9,1 GB   |    Зарегистрирован:  8 месяцев 26 дней   |    Скачан:  0 раз

Полного источника не было: Никогда

Личеров:  1  [  0 KB/s  ]  
 
   
 
 

DR_KTO ®

Пол:
Не указан
Стаж:
8 месяцев 27 дней
Сообщений:
105

Воображариум (26 выпусков)

Год выпуска: 2014
Страна: Росиия
Жанр: Детская, просказочная
Продолжительность: 00:25:00 х 26
Перевод: Не требуется
Русские субтитры: нет
Телеканал: Карусель
Ведущая: Лена Батинова
Описание: «Воображариум» — это настоящая научно-исследовательская лаборатория по изучению сказок, где маленькие зрители могут проверить свои знания, вспомнить любимую сказку и узнать что-то новое.
Каждый выпуск посвящён определенному сказочному или мифическому персонажу, герою известной сказки или древней легенды. Какую кашу ел на завтрак Илья Муромец? Какой длины уши у Конька-Горбунка? Зачем люди пытались добыть рог единорога? На какую птицу на самом деле похож легендарный Феникс? Зачем Баба-Яга сажала добра молодца в печку? Почему Карлсон живёт на крыше? Ведущая Лена Батинова и ее маленькие помощники в студии будут разбираться в этих сложных вопросах, а помогут им специалисты со всего мира — филологи и фольклористы, географы и орнитологи, спелеологи и скульпторы, ботаники и искусствоведы, историки и кузнецы, музыковеды и шеф-повара.
Вы научитесь сами варить богатырскую кашу, делать украшения, как Данила-мастер, расписывать птицу Феникс и собирать бусы, как у настоящей Русалочки. Вместе со сказочными героями вы посетите Австрию и Германию, Англию и Шотландию, Китай, Африку, Скандинавские страны, Чехию, и, конечно, самые удивительные уголки России. Вы поднимитесь высоко в горы, опуститесь на самое дно озера Лох-Несс, побываете в пещерах удивительной красоты и таинственных морских бухтах.
А ещё мы вспомним, каких удивительных художников, артистов, композиторов и режиссёров вдохновили на творчество наши любимые сказочные герои. Как представлял своих гномов Вагнер, а Бабу-Ягу — Чайковский? Какими изобразил русских богатырей Васнецов, а Змея Горыныча — Нестеров? Чем Русалочка Андерсена отличается от пушкинской героини? Есть ли иностранные сказки о Колобке? Кто придумал Муми-троллей, и почему Астрид Линдгрен начала сочинять свои удивительные сказки?
Вы услышите лучшую мировую классическую музыку, увидите десятки шедевров изобразительного искусства, а также фрагменты лучших отечественных фильмов-сказок.
Доп. информация: Запись с канала "Карусель". Нумерация выпусков - с него же http://www.karusel-tv.ru/announce/13503
Сэмпл: http://multi-up.com/1028613
Релиз:
качество: SATRip
формат: AVI
Видео: 720x416 (1.85:1), 25 fps, XviD build 64 ~1697 kbps avg, 0.23 bit/pixel
Аудио: 48 kHz, MPEG Layer 3, 2 ch, ~192.00 kbps avg

Список выпусков/серий

01 Баба-Яга.avi
02 Феи.avi
03 Гномы.avi
04 Единорог.avi
05 Белоснежка.avi
06 Эльфы.avi
07 Кощей.avi
08 Феникс.avi
09 Домовой.avi
10 Змей Горыныч.avi
11 Водяной.avi
12 Конёк-Горбунок.avi
13 Дед Мороз.avi
14 Леший.avi
15 Русалки.avi
16 Аленький цветочек.avi
17 Колобок.avi
18 Мумми троль.avi
19 Илья Муромец.avi
20 Богатыри.avi
21 Карлсон.avi
22 Ходжа Насреддин.avi
23 Шехерезада.avi
24 Джинны.avi
25 Хозяйка медной горы.avi
26 Али-Баба.avi

MediaInfo

Полное имя : H:\01 РАЗДАЧИ ШОУ\Воображариум МОЙ\Воображариум\02 Феи.avi
Формат : AVI
Формат/Информация : Audio Video Interleave
Размер файла : 352 Мбайт
Продолжительность : 25 м.
Общий поток : 1903 Кбит/сек
Программа кодирования : Lavf54.63.100
Видео
Идентификатор : 0
Формат : MPEG-4 Visual
Профиль формата : Simple@L3
Параметр BVOP формата : Нет
Параметр QPel формата : Нет
Параметр GMC формата : Без точки перехода
Параметр матрицы формата : Default (H.263)
Идентификатор кодека : XVID
Идентификатор кодека/Подсказка : XviD
Продолжительность : 25 м.
Битрейт : 1698 Кбит/сек
Ширина : 720 пикселей
Высота : 416 пикселей
Соотношение сторон : 1,85:1
Частота кадров : 25,000 кадров/сек
Цветовое пространство : YUV
Субдискретизация насыщенности : 4:2:0
Битовая глубина : 8 бит
Тип развёртки : Прогрессивная
Метод сжатия : С потерями
Бит/(Пиксели*Кадры) : 0.227
Размер потока : 314 Мбайт (89%)
Библиотека кодирования : XviD 64
Аудио
Идентификатор : 1
Формат : MPEG Audio
Версия формата : Version 1
Профиль формата : Layer 3
Идентификатор кодека : 55
Идентификатор кодека/Подсказка : MP3
Продолжительность : 25 м.
Вид битрейта : Постоянный
Битрейт : 192 Кбит/сек
Каналы : 2 канала
Частота : 48,0 КГц
Метод сжатия : С потерями
Размер потока : 35,5 Мбайт (10%)
Выравнивание : Соединение по промежуткам
Продолжительность промежутка : 24 мс. (0,60 видеокадр)
Время предзагрузки промежутка : 24 мс.
Библиотека кодирования : LAME3.99.5Цљ)’‘NnПЃ

Скриншоты

[cybertorrent.ru].t2165.torrent 
Торрент: Зарегистрирован [ 2018-02-16 11:35 ] · EF5E4FDE66590320F965E1912DFF514372497ACA

Скачать .torrent

Скачать

25 KB

Статус: проверено
Скачан: 0 раз
Размер: 9,1 GB
Профиль [ЛС]
Показать сообщения:    

Текущее время: 14-Ноя 19:56

Часовой пояс: UTC ± 0



Вы не можете начинать темы
Вы не можете отвечать на сообщения
Вы не можете редактировать свои сообщения
Вы не можете удалять свои сообщения
Вы не можете голосовать в опросах
Вы не можете прикреплять файлы к сообщениям
Вы можете скачивать файлы
Torrents24.ru открытый BitTorrent Torrents24.pl открытый BitTorrent CyberTorrent.ru открытый BitTorrent BtList.ru рейтинг BitTorrent трекеров Яндекс.Метрика