Статистика раздачи
Нет
 
     
 
 

K15 ®

Пол:
Мужской
Стаж:
10 месяцев 12 дней
Сообщений:
235

Информация о фильме
Название: Новые мутанты / Люди Икс: Новые мутанты
Оригинальное название: The New Mutants
Год выхода: 2020
Жанр: Ужасы, фантастика, боевик, комикс, супергерой
Режиссер: Джош Бун
В ролях: Мэйси Уильямс, Аня Тейлор-Джой, Чарли Хитон, Алиси Брага, Блю Хант, Генри Зага, Адам Бич, Томас Ки, Колби Ганнетт, Хэппи Андерсон

О фильме: Пятерых юных мутантов против их воли держат на секретном объекте в полной изоляции. Неожиданно вокруг них начинают твориться странные и пугающие происшествия, и герои оказываются в ситуации, требующей от них объединиться и приложить все свои умения ради собственного спасения.
Страна: США
Студия: 20th Century Studios, Marvel Entertainment, Twentieth Century Fox
Продолжительность: 01:34:04
Перевод: Дублированный | iTunes
Качество: BDRemux 1080p
Видео: MPEG-4 AVC, 1920x1080, 30.3 Mbit/s, 23.976 fps
Аудио #01: 48 kHz, AC3, 5.1, 384 Kbps | iTunes | RUS |
Аудио #02: 48 kHz, DTS-HD MA, 7.1, 4543 Kbps | Оригинал | ENG |
Субтитры: Русские (Full), английские

MI

General
Unique ID : 72388197215379106123826925783643963944 (0x367575AC85B2A945098674BD8401C228)
Complete name : D:Video111The.New.Mutants.2020.BDREMUX.1080p.seleZen.mkv
Format : Matroska
Format version : Version 4
File size : 23.1 GiB
Duration : 1 h 34 min
Overall bit rate mode : Variable
Overall bit rate : 35.2 Mb/s
Movie name : The New Mutants 2020 from seleZen
Encoded date : UTC 2020-11-18 16:18:54
Writing application : mkvmerge v40.0.0 ('Old Town Road + Pony') 64-bit
Writing library : libebml v1.3.9 + libmatroska v1.5.2
Video
ID : 1
Format : AVC
Format/Info : Advanced Video Codec
Format profile : High@L4.1
Format settings : CABAC / 4 Ref Frames
Format settings, CABAC : Yes
Format settings, Reference : 4 frames
Codec ID : V_MPEG4/ISO/AVC
Duration : 1 h 34 min
Bit rate mode : Variable
Bit rate : 30.3 Mb/s
Maximum bit rate : 33.0 Mb/s
Width : 1 920 pixels
Height : 1 080 pixels
Display aspect ratio : 16:9
Frame rate mode : Constant
Frame rate : 23.976 (24000/1001) FPS
Color space : YUV
Chroma subsampling : 4:2:0
Bit depth : 8 bits
Scan type : Progressive
Bits/(Pixel*Frame) : 0.609
Stream size : 19.9 GiB (86%)
Language : English
Default : No
Forced : No
Audio #1
ID : 2
Format : AC-3
Format/Info : Audio Coding 3
Commercial name : Dolby Digital
Codec ID : A_AC3
Duration : 1 h 34 min
Bit rate mode : Constant
Bit rate : 384 kb/s
Channel(s) : 6 channels
Channel layout : L R C LFE Ls Rs
Sampling rate : 48.0 kHz
Frame rate : 31.250 FPS (1536 SPF)
Compression mode : Lossy
Stream size : 258 MiB (1%)
Title : iTunes
Language : Russian
Service kind : Complete Main
Default : Yes
Forced : Yes
Audio #2
ID : 3
Format : DTS XLL
Format/Info : Digital Theater Systems
Commercial name : DTS-HD Master Audio
Codec ID : A_DTS
Duration : 1 h 34 min
Bit rate mode : Variable
Bit rate : 4 543 kb/s
Channel(s) : 8 channels
Channel layout : C L R LFE Lb Rb Lss Rss
Sampling rate : 48.0 kHz
Frame rate : 93.750 FPS (512 SPF)
Bit depth : 24 bits
Compression mode : Lossless
Stream size : 2.98 GiB (13%)
Title : Original
Language : English
Default : No
Forced : No
Text #1
ID : 4
Format : UTF-8
Codec ID : S_TEXT/UTF8
Codec ID/Info : UTF-8 Plain Text
Duration : 1 h 26 min
Bit rate : 68 b/s
Count of elements : 993
Stream size : 43.3 KiB (0%)
Title : Full
Language : Russian
Default : No
Forced : No
Text #2
ID : 5
Format : UTF-8
Codec ID : S_TEXT/UTF8
Codec ID/Info : UTF-8 Plain Text
Duration : 1 h 26 min
Bit rate : 39 b/s
Count of elements : 1031
Stream size : 25.1 KiB (0%)
Title : Full
Language : English
Default : No
Forced : No
Text #3
ID : 6
Format : UTF-8
Codec ID : S_TEXT/UTF8
Codec ID/Info : UTF-8 Plain Text
Duration : 1 h 26 min
Bit rate : 50 b/s
Count of elements : 1343
Stream size : 32.1 KiB (0%)
Title : SDH
Language : English
Default : No
Forced : No
Menu
00:00:00.000 : en:Chapter 01
00:02:39.951 : en:Chapter 02
00:08:07.737 : en:Chapter 03
00:10:53.862 : en:Chapter 04
00:14:33.039 : en:Chapter 05
00:17:23.918 : en:Chapter 06
00:19:53.067 : en:Chapter 07
00:23:41.879 : en:Chapter 08
00:27:54.590 : en:Chapter 09
00:30:30.078 : en:Chapter 10
00:33:26.588 : en:Chapter 11
00:39:36.791 : en:Chapter 12
00:43:12.965 : en:Chapter 13
00:47:53.287 : en:Chapter 14
00:50:35.157 : en:Chapter 15
00:52:12.254 : en:Chapter 16
00:55:28.825 : en:Chapter 17
00:57:13.055 : en:Chapter 18
01:00:17.113 : en:Chapter 19
01:02:37.754 : en:Chapter 20
01:06:36.367 : en:Chapter 21
01:11:12.101 : en:Chapter 22
01:13:44.462 : en:Chapter 23
01:15:07.878 : en:Chapter 24
01:18:57.107 : en:Chapter 25
01:21:52.366 : en:Chapter 26
01:24:32.276 : en:Chapter 27
01:26:46.201 : en:Chapter 28
Релиз: Присоединяйся к:
Профиль [ЛС]
Показать сообщения:    

Текущее время: 04-Дек 04:10

Часовой пояс: UTC ± 0



Вы не можете начинать темы
Вы не можете отвечать на сообщения
Вы не можете редактировать свои сообщения
Вы не можете удалять свои сообщения
Вы не можете голосовать в опросах
Вы не можете прикреплять файлы к сообщениям
Вы не можете скачивать файлы