Статистика раздачи
Нет
 
     
 
 

K15 ®

Пол:
Мужской
Стаж:
10 месяцев 12 дней
Сообщений:
235

Информация о фильме
Название: Заклятье. Дом 32
Оригинальное название: Malasaña 32
Год выхода: 2020
Жанр: Ужасы
Режиссер: Альберт Пинто
В ролях: Бегонья Варгас, Иван Маркос, Беа Сегура, Серджо Кастелланос, Хосе Луис Де Мадарьяга, Иван Ренедо, Конча Веласко, Хавьер Ботет, Мария Бальестерос, Роза Альварес
О фильме: Действие развернётся в 1970-х годах в Мадриде. Большая семья Ольмедо переезжает в столицу в надежде на лучшую жизнь. Герои заезжают в просторную квартиру, где осталась старая мебель от прежних жильцов. Но вскоре родственники осознают, что в их жилище обосновалось нечто жуткое. Сначала исчезает младший сын, за которым должна была присматривать дочь-подросток. Вскоре старший брат становится одержим девушкой, которую постоянно видит в окне, пока она передает странные послания, а дедушка начинает говорить странные вещи. И тогда становится очевидно, что без посторонней помощи не обойтись, но полиция не в силах разобраться в происходящем, а значит семье придется самостоятельно разгадывать тайну дома...

Выпущено: Испания, Франция / 4 Cats Pictures, Atresmedia Cine, Bambú Producciones
Продолжительность: 01:44:38
Озвучивание: Дублированное | iTunes
Файл
Формат: MKV
Качество: BDRip 720p
Видео: MPEG-4 AVC, 6500 Kb/s, 1280x536
Аудио #1: Russian: 48 kHz, AC3 Dolby Digital, 3/2 (L, C, R, l, r) + LFE ch, ~384 Kbps | iTunes
Аудио #2: Spanish: 48 kHz, AC3 Dolby Digital, 3/2 (L, C, R, l, r) + LFE ch, ~640 Kbps | Original
Субтитры: Russian (Forced), English (Full), Spanish (Full)
Дополнительно: Сохранены оригинальные чаптеры.

MediaInfo

Complete name: Malasana.32.2020.BDRip.720p.ELEKTRI4KA.UNIONGANG.mkv
Format: Matroska
Format version: Version 4 / Version 2
File size: 5.50 GiB
Duration: 1 h 44 min
Overall bit rate: 7 515 kb/s
Movie name: .ELEKTRI4KA.UNIONGANG.
Encoded date: UTC 2020-11-19 18:46:38
Writing application: mkvmerge v8.3.0 ('Over the Horizon') 64bit
Writing library: libebml v1.3.1 + libmatroska v1.4.2
Video
ID: 1
Format: AVC
Format/Info: Advanced Video Codec
Format profile: High@L5
Format settings, CABAC: Yes
Format settings, Reference frames: 16 frames
Codec ID: V_MPEG4/ISO/AVC
Duration: 1 h 44 min
Bit rate: 6 500 kb/s
Width: 1 280 pixels
Height: 536 pixels
Display aspect ratio: 2.40:1
Frame rate mode: Constant
Frame rate: 23.976 (24000/1001) FPS
Color space: YUV
Chroma subsampling: 4:2:0
Bit depth: 8 bits
Scan type: Progressive
Bits/(Pixel*Frame): 0.395
Stream size: 4.75 GiB (86%)
Writing library: x264 core 157 r2958 57baac4
Encoding settings: cabac=1 / ref=16 / deblock=1:-3:-3 / analyse=0x3:0x133 / me=umh / subme=10 / psy=1 / psy_rd=1.00:0.15 / mixed_ref=1 / me_range=24 / chroma_me=1 / trellis=2 / 8x8dct=1 / cqm=0 / deadzone=21, 11 / fast_pskip=1 / chroma_qp_offset=-3 / threads=37 / lookahead_threads=4 / sliced_threads=0 / nr=0 / decimate=1 / interlaced=0 / bluray_compat=0 / constrained_intra=0 / bframes=8 / b_pyramid=2 / b_adapt=2 / b_bias=0 / direct=3 / weightb=1 / open_gop=0 / weightp=2 / keyint=240 / keyint_min=24 / scenecut=40 / intra_refresh=0 / rc_lookahead=60 / rc=2pass / mbtree=1 / bitrate=6500 / ratetol=1.0 / qcomp=0.60 / qpmin=0 / qpmax=69 / qpstep=4 / cplxblur=20.0 / qblur=0.5 / ip_ratio=1.40 / aq=1:1.00
Language: Spanish
Default: Yes
Forced: No
Color range: Limited
Color primaries: BT.709
Transfer characteristics: BT.709
Matrix coefficients: BT.709
Audio #1
ID: 2
Format: AC-3
Format/Info: Audio Coding 3
Mode extension: CM (complete main)
Format settings, Endianness: Big
Codec ID: A_AC3
Duration: 1 h 44 min
Bit rate mode: Constant
Bit rate: 384 kb/s
Channel(s): 6 channels
Channel positions: Front: L C R, Side: L R, LFE
Sampling rate: 48.0 kHz
Frame rate: 31.250 FPS (1536 spf)
Bit depth: 16 bits
Compression mode: Lossy
Stream size: 288 MiB (5%)
Title: DUB (iTunes)
Language: Russian
Default: Yes
Forced: No
Audio #2
ID: 3
Format: AC-3
Format/Info: Audio Coding 3
Mode extension: CM (complete main)
Format settings, Endianness: Big
Codec ID: A_AC3
Duration: 1 h 44 min
Bit rate mode: Constant
Bit rate: 640 kb/s
Channel(s): 6 channels
Channel positions: Front: L C R, Side: L R, LFE
Sampling rate: 48.0 kHz
Frame rate: 31.250 FPS (1536 spf)
Bit depth: 16 bits
Compression mode: Lossy
Stream size: 479 MiB (9%)
Title: Original
Language: Spanish
Default: No
Forced: No
Text #1
ID: 4
Format: UTF-8
Codec ID: S_TEXT/UTF8
Codec ID/Info: UTF-8 Plain Text
Duration: 1 h 17 min
Bit rate: 0 b/s
Count of elements: 18
Stream size: 502 Bytes (0%)
Title: Forced
Language: Russian
Default: Yes
Forced: No
Text #2
ID: 5
Format: UTF-8
Codec ID: S_TEXT/UTF8
Codec ID/Info: UTF-8 Plain Text
Duration: 1 h 42 min
Bit rate: 29 b/s
Count of elements: 798
Stream size: 22.5 KiB (0%)
Title: Full
Language: English
Default: No
Forced: No
Text #3
ID: 6
Format: UTF-8
Codec ID: S_TEXT/UTF8
Codec ID/Info: UTF-8 Plain Text
Duration: 1 h 42 min
Bit rate: 32 b/s
Count of elements: 798
Stream size: 24.8 KiB (0%)
Title: Full
Language: Spanish
Default: No
Forced: No
Menu
00:07:48.000: es:CapГ­tulo 1
00:12:24.000: es:CapГ­tulo 2
00:21:26.000: es:CapГ­tulo 3
00:28:36.000: es:CapГ­tulo 4
00:34:42.000: es:CapГ­tulo 5
00:39:14.000: es:CapГ­tulo 6
00:45:51.000: es:CapГ­tulo 7
00:52:19.000: es:CapГ­tulo 8
00:57:14.000: es:CapГ­tulo 9
01:03:17.000: es:CapГ­tulo 10
01:07:18.000: es:CapГ­tulo 11
01:12:52.000: es:CapГ­tulo 12
01:18:13.000: es:CapГ­tulo 13
01:23:51.000: es:CapГ­tulo 14
01:30:22.000: es:CapГ­tulo 15
01:39:16.000: es:CapГ­tulo 16
01:41:36.000: es:Creditos

Скриншоты

Профиль [ЛС]
Показать сообщения:    

Текущее время: 04-Дек 05:32

Часовой пояс: UTC ± 0



Вы не можете начинать темы
Вы не можете отвечать на сообщения
Вы не можете редактировать свои сообщения
Вы не можете удалять свои сообщения
Вы не можете голосовать в опросах
Вы не можете прикреплять файлы к сообщениям
Вы не можете скачивать файлы