Статистика раздачи
Нет
 
     
 
 

K15 ®

Пол:
Мужской
Стаж:
10 месяцев 12 дней
Сообщений:
235

Информация о фильме
Название: Генерал Де Голль
Оригинальное название: De Gaulle
Год выхода: 2020
Жанр: Драма, биография, история
Режиссер: Гэбриел Ле Бомин
В ролях: Ламбер Вильсон, Изабель Карре, Оливье Гурме, Катрин Муше, Пьер Ханчиссе, Софи Куинтон, Жиль Коэн, Лоран Стокер, Ален Ленгле, Филиппин Леруа-Больё
О фильме: Разгар Второй мировой войны. Франция обессилена и готова сдаться. Но истинный патриот, генерал де Голль не мог позволить стране потерять честь и достоинство. Он спорит с Правительством, ведет переговоры с Черчиллем, обращается к народу. Де Голль становится голосом Сопротивления, заручившись в этом поддержкой лишь любимой жены.

Страна: Франция
Студия: Canal+ [fr], Ciné, Centre National de la Cinématographie (CNC), France Télévisions, Région Ile-de-France
Продолжительность: 01:48:58
Перевод: Профессиональный (многоголосый, закадровый) | iTunes
Файл
Формат: MKV
Качество: BDRip-AVC
Исходник: |De.Gaulle.2020.BDRemux.THD-potroks|
Видео: 720x302 (2.40:1), 24 fps, x264 ~891 kbps avg, 0.171 bit/pixel
Звук: 48 kHz, HE-AAC, 2 ch, ~64 kbps avg
Субтитры: Отсутствуют

MediaInfo

General
Unique ID : 53370424891200662386156393280045476902 (0x2826C51B1136B824D28C73CB64E66C26)
Complete name : D:OlLanDGroupGeneral.De.Goll.BDRip(AVC)745Mb.OlLanDGroup.mkv
Format : Matroska
Format version : Version 4
File size : 745 MiB
Duration : 1 h 48 min
Overall bit rate : 956 kb/s
Movie name : Генерал Де Голль / De Gaulle (2020) BDRip-AVC от OlLanDGroup#Skandar
Encoded date : UTC 2020-11-21 02:37:29
Writing application : mkvmerge v31.0.0 ('Dolores In A Shoestand') 64-bit
Writing library : libebml v1.3.6 + libmatroska v1.4.9
Video
ID : 1
Format : AVC
Format/Info : Advanced Video Codec
Format profile : High@L4.1
Format settings : CABAC / 10 Ref Frames
Format settings, CABAC : Yes
Format settings, ReFrames : 10 frames
Codec ID : V_MPEG4/ISO/AVC
Duration : 1 h 48 min
Bit rate : 891 kb/s
Width : 720 pixels
Height : 302 pixels
Display aspect ratio : 2.40:1
Frame rate mode : Constant
Frame rate : 24.000 FPS
Color space : YUV
Chroma subsampling : 4:2:0
Bit depth : 8 bits
Scan type : Progressive
Bits/(Pixel*Frame) : 0.171
Stream size : 694 MiB (93%)
Title : Генерал Де Голль / De Gaulle (2020) BDRip-AVC от OlLanDGroup#Skandar
Writing library : x264 core 146 r2538 121396c
Encoding settings : cabac=1 / ref=10 / deblock=1:-3:-3 / analyse=0x3:0x133 / me=umh / subme=11 / psy=1 / psy_rd=0.95:0.05 / mixed_ref=1 / me_range=32 / chroma_me=1 / trellis=2 / 8x8dct=1 / cqm=0 / deadzone=21,11 / fast_pskip=0 / chroma_qp_offset=-3 / threads=6 / lookahead_threads=1 / sliced_threads=0 / nr=0 / decimate=0 / interlaced=0 / bluray_compat=0 / constrained_intra=0 / bframes=10 / b_pyramid=2 / b_adapt=2 / b_bias=0 / direct=3 / weightb=1 / open_gop=0 / weightp=2 / keyint=240 / keyint_min=24 / scenecut=40 / intra_refresh=0 / rc_lookahead=40 / rc=2pass / mbtree=1 / bitrate=891 / ratetol=1.0 / qcomp=0.60 / qpmin=0 / qpmax=69 / qpstep=4 / cplxblur=20.0 / qblur=0.5 / vbv_maxrate=50000 / vbv_bufsize=62500 / nal_hrd=none / filler=0 / ip_ratio=1.40 / aq=1:1.00
Language : French
Default : Yes
Forced : No
Audio
ID : 2
Format : AAC LC SBR
Format/Info : Advanced Audio Codec Low Complexity with Spectral Band Replication
Commercial name : HE-AAC
Format settings : Explicit
Codec ID : A_AAC-2
Duration : 1 h 48 min
Bit rate : 64.0 kb/s
Channel(s) : 2 channels
Channel layout : L R
Sampling rate : 48.0 kHz
Frame rate : 23.438 FPS (2048 SPF)
Compression mode : Lossy
Delay relative to video : 31 ms
Stream size : 49.9 MiB (7%)
Title : MVO | iTunes
Language : Russian
Default : Yes
Forced : No
Menu
00:00:00.000 : :Chapter 01
00:06:44.917 : :Chapter 02
00:13:01.708 : :Chapter 03
00:20:37.792 : :Chapter 04
00:29:47.875 : :Chapter 05
00:43:24.333 : :Chapter 06
00:54:10.917 : :Chapter 07
01:02:23.250 : :Chapter 08
01:09:14.375 : :Chapter 09
01:16:57.250 : :Chapter 10
01:25:24.875 : :Chapter 11
01:37:01.708 : :Chapter 12

Скриншоты


Профиль [ЛС]
Показать сообщения:    

Текущее время: 04-Дек 04:42

Часовой пояс: UTC ± 0



Вы не можете начинать темы
Вы не можете отвечать на сообщения
Вы не можете редактировать свои сообщения
Вы не можете удалять свои сообщения
Вы не можете голосовать в опросах
Вы не можете прикреплять файлы к сообщениям
Вы не можете скачивать файлы