K15 ®

Пол:
Мужской
Стаж:
11 месяцев
Сообщений:
240

Информация о фильме
Название: Телохранитель бабушки
Оригинальное название: Lucky Grandma
Год выхода: 2019
Жанр: Драма, комедия, криминал
Режиссер: Сеси Сили
В ролях: Цай Чинь, Ха Сяоюань, Майкл Тоу, Вуди Фу, Янь Си, Вай Чин Хо, Клем Чун, Эдди Юй, Мэйсон Ям, Лиман Чен
О фильме: Где-то в Нью-Йорке гадалка предсказала бабушке большую удачу. Никогда не поздно начать жить в свое удовольствие. Бабушка сняла все деньги со счета и отправилась в казино. Сорвать огромный куш в казино? Да легко! Нанять телохранителя? Не проблема! Черпая вдохновение из остросюжетных телесериалов, бабушка оказывается в эпицентре настоящих бандитских разборок. Теперь несладко будет всем!

Страна: США
Студия: Parris Pictures, Treehead Films
Продолжительность: 01:27:38
Перевод: Профессиональный (многоголосый, закадровый) | iTunes
Файл
Формат: MKV
Качество: BDRip-AVC
Исходник: |Lucky.Grandma.2019.BDREMUX.1080p.seleZen|
Видео: 720x388 (1.85:1), 23.976 fps, x264 ~1123 kbps avg, 0.168 bit/pixel
Звук: 48 kHz, HE-AAC, 2 ch, ~72 kbps avg
Субтитры: Английские
Релиз:

MediaInfo:

General
Unique ID : 3512784603880659995715290069303478353 (0x2A489A71454D958DA2DB80AD3BEC851)
Complete name : D:OlLanDGroupLucky.Grandma.2019.BDRip(AVC).745Mb.OlLanDGroup.mkv
Format : Matroska
Format version : Version 4
File size : 742 MiB
Duration : 1 h 27 min
Overall bit rate : 1 184 kb/s
Movie name : Телохранитель бабушки / Lucky Grandma (2019) BDRip-AVC от OlLanDGroup#Skandar
Encoded date : UTC 2020-11-21 09:08:55
Writing application : mkvmerge v31.0.0 ('Dolores In A Shoestand') 64-bit
Writing library : libebml v1.3.6 + libmatroska v1.4.9
Cover : Yes
Attachments : cover.jpg
Video
ID : 1
Format : AVC
Format/Info : Advanced Video Codec
Format profile : High@L4.1
Format settings : CABAC / 10 Ref Frames
Format settings, CABAC : Yes
Format settings, ReFrames : 10 frames
Codec ID : V_MPEG4/ISO/AVC
Duration : 1 h 27 min
Bit rate : 1 123 kb/s
Width : 720 pixels
Height : 388 pixels
Display aspect ratio : 1.85:1
Frame rate mode : Constant
Frame rate : 23.976 (24000/1001) FPS
Color space : YUV
Chroma subsampling : 4:2:0
Bit depth : 8 bits
Scan type : Progressive
Bits/(Pixel*Frame) : 0.168
Stream size : 696 MiB (94%)
Title : Телохранитель бабушки / Lucky Grandma (2019) BDRip-AVC от OlLanDGroup#Skandar
Writing library : x264 core 146 r2538 121396c
Encoding settings : cabac=1 / ref=10 / deblock=1:-3:-3 / analyse=0x3:0x133 / me=umh / subme=11 / psy=1 / psy_rd=0.95:0.05 / mixed_ref=1 / me_range=32 / chroma_me=1 / trellis=2 / 8x8dct=1 / cqm=0 / deadzone=21,11 / fast_pskip=0 / chroma_qp_offset=-3 / threads=6 / lookahead_threads=1 / sliced_threads=0 / nr=0 / decimate=0 / interlaced=0 / bluray_compat=0 / constrained_intra=0 / bframes=10 / b_pyramid=2 / b_adapt=2 / b_bias=0 / direct=3 / weightb=1 / open_gop=0 / weightp=2 / keyint=240 / keyint_min=23 / scenecut=40 / intra_refresh=0 / rc_lookahead=40 / rc=2pass / mbtree=1 / bitrate=1123 / ratetol=1.0 / qcomp=0.60 / qpmin=0 / qpmax=69 / qpstep=4 / cplxblur=20.0 / qblur=0.5 / vbv_maxrate=50000 / vbv_bufsize=62500 / nal_hrd=none / filler=0 / ip_ratio=1.40 / aq=1:1.00
Language : Chinese
Default : Yes
Forced : No
Audio
ID : 2
Format : AAC LC SBR
Format/Info : Advanced Audio Codec Low Complexity with Spectral Band Replication
Commercial name : HE-AAC
Format settings : Explicit
Codec ID : A_AAC-2
Duration : 1 h 27 min
Bit rate : 72.0 kb/s
Channel(s) : 2 channels
Channel layout : L R
Sampling rate : 48.0 kHz
Frame rate : 23.438 FPS (2048 SPF)
Compression mode : Lossy
Delay relative to video : 31 ms
Stream size : 45.1 MiB (6%)
Title : MVO | iTunes
Language : Russian
Default : Yes
Forced : No
Text
ID : 3
Format : UTF-8
Codec ID : S_TEXT/UTF8
Codec ID/Info : UTF-8 Plain Text
Duration : 1 h 19 min
Bit rate : 27 b/s
Count of elements : 670
Stream size : 16.1 KiB (0%)
Title : Full
Language : English
Default : No
Forced : No
Menu
00:00:00.000 : en:00:00:00.000
00:02:57.427 : en:00:02:57.427
00:14:36.375 : en:00:14:36.375
00:25:17.391 : en:00:25:17.391
00:38:29.224 : en:00:38:29.224
00:49:28.799 : en:00:49:28.799
00:59:11.381 : en:00:59:11.381
01:08:38.823 : en:01:08:38.823
01:15:52.798 : en:01:15:52.798
01:21:49.530 : en:01:21:49.530

Скриншоты


Профиль [ЛС]
Показать сообщения:    

Текущее время: 20-Янв 18:53

Часовой пояс: UTC ± 0



Вы не можете начинать темы
Вы не можете отвечать на сообщения
Вы не можете редактировать свои сообщения
Вы не можете удалять свои сообщения
Вы не можете голосовать в опросах
Вы не можете прикреплять файлы к сообщениям
Вы не можете скачивать файлы