Статистика раздачи
Размер:  3,2 GB   |    Зарегистрирован:  7 месяцев 6 дней   |    Скачан:  0 раз

Полного источника не было: Никогда

 
   
 
 

Симка ®

Пол:
Не указан
Стаж:
7 месяцев 7 дней
Сообщений:
73

Ох и семейка! / Oh! Family / Oh!ファミリーСтрана: Япония
Выпуск: c 06.10.1986 по 30.03.1987
Жанры: комедия, повседневность, сёдзё
Тип/Продолжительность: TV, 26 эп. по 25 мин.
Режиссёр: Отиай Масамунэ
Автор оригинала: Ватанабэ Таэко
Студия: -Описание:
Забавная и трогательная история семейки Андерсонов, которая живёт в Лос-Анджелесе. В один прекрасный вечер к ним в дом приходит маленький мальчик — Джонатан Аллен — пяти лет с огромной собакой — Адамом. «Сосед», — подумаете вы. А вот и нет, тут всё куда серьёзнее. Ну, насколько это может быть серьёзнее в комедии.-Информационные ссылки: World Art || AniDB || MAL
-Субтитры:

  • русские, софтсаб, внешними файлами, от Xellos Slayer & sys3x & Tentenkunchan
    перевод с японского: Xellos Slayer; тайминг и редактура: sys3x; корректура: Tentenkunchan
    -Энкод: sys3x
    Качество: DVDRip | Тип видео: без хардсаба | Формат: MKV
    Видео: 1024x768, 25.000 f/s, H.264 (8 bits), 1 450 Kb/s
    Аудио: 48.0 KHz, AC3, 2 channels, 192 Kb/s-

    Подробные тех. данные

    Код:Общее
    Уникальный идентификатор : 220443958270301256823172477959389918244 (0xA5D7F6478BB9DD5E9EB3A7848C813424)
    Полное имя : ***\Ох и семейка! [Oh! Family]\[sjs] Oh! Family 01 [DVDRip 1024x768 x264 AC3].mkv
    Формат : Matroska
    Версия формата : Version 2
    Размер файла : 273 Мбайт
    Продолжительность : 23 м.
    Общий поток : 1644 Кбит/сек
    Дата кодирования : UTC 2014-11-28 10:11:23
    Программа кодирования : mkvmerge v5.8.0 ('No Sleep / Pillow') built on Sep 2 2012 15:37:04
    Библиотека кодирования : libebml v1.2.3 + libmatroska v1.3.0
    Видео
    Идентификатор : 1
    Формат : AVC
    Формат/Информация : Advanced Video Codec
    Профиль формата : High@L4.1
    Параметр CABAC формата : Да
    Параметр ReFrames формата : 9 кадров
    Идентификатор кодека : V_MPEG4/ISO/AVC
    Продолжительность : 23 м.
    Битрейт : 1450 Кбит/сек
    Ширина : 1024 пикселя
    Высота : 768 пикселей
    Соотношение сторон : 4:3
    Режим частоты кадров : Постоянный
    Частота кадров : 25,000 кадров/сек
    Цветовое пространство : YUV
    Субдискретизация насыщенности : 4:2:0
    Битовая глубина : 8 бит
    Тип развёртки : Прогрессивная
    Бит/(Пиксели*Кадры) : 0.074
    Размер потока : 236 Мбайт (86%)
    Библиотека кодирования : x264 core 125 r2208 d9d2288
    Настройки программы : cabac=1 / ref=9 / deblock=1:1:1 / analyse=0x3:0x113 / me=umh / subme=10 / psy=1 / psy_rd=0.40:0.00 / mixed_ref=1 / me_range=24 / chroma_me=1 / trellis=2 / 8x8dct=1 / cqm=0 / deadzone=21,11 / fast_pskip=0 / chroma_qp_offset=-2 / threads=6 / lookahead_threads=1 / sliced_threads=0 / nr=0 / decimate=1 / interlaced=0 / bluray_compat=0 / constrained_intra=0 / bframes=6 / b_pyramid=2 / b_adapt=2 / b_bias=0 / direct=3 / weightb=1 / open_gop=0 / weightp=2 / keyint=250 / keyint_min=25 / scenecut=40 / intra_refresh=0 / rc_lookahead=120 / rc=2pass / mbtree=1 / bitrate=1450 / ratetol=1.0 / qcomp=0.70 / qpmin=0 / qpmax=51 / qpstep=4 / cplxblur=20.0 / qblur=0.5 / vbv_maxrate=50000 / vbv_bufsize=50000 / nal_hrd=none / ip_ratio=1.40 / aq=1:0.60
    Default : Да
    Forced : Нет
    Аудио
    Идентификатор : 2
    Формат : AC-3
    Формат/Информация : Audio Coding 3
    Расширение режима : CM (complete main)
    Параметр Endianness формата : Big
    Идентификатор кодека : A_AC3
    Продолжительность : 23 м.
    Вид битрейта : Постоянный
    Битрейт : 192 Кбит/сек
    Каналы : 2 канала
    Расположение каналов : Front: L R
    Частота : 48,0 КГц
    Битовая глубина : 16 бит
    Метод сжатия : С потерями
    Размер потока : 31,9 Мбайт (12%)
    Default : Да
    Forced : Нет

    Список эпизодов

    01. Members of the Anderson Family
    02. First Day
    03. LA! A Re-encounter
    04. Adam and Eve
    05. It's Time to get a Boyfriend
    06. Is it Alright to Fall in Love Again
    07. My Beloved Maria
    08. Triange Lullaby
    09. First Lady
    10. Debbie is in Love
    11. Family of the Seventh Person
    12. Friendship Memories
    13. The Party Dress is still not Suitable
    14. Sentimental Road
    15. Adam and those Days
    16. The Holy Mother arrives in Town
    17. The Blank Sketchbook
    18. The Joke in the Box
    19. Lucky 1/2
    20. Goddess of Abundance
    21. Hasshabai
    22. The Evening Magic
    23. Another Maria
    24. I like Papa!
    25. Highheel Sprinter
    26. Family

    Скриншоты

    [cybertorrent.ru].t2167.torrent 
    Торрент: Зарегистрирован [ 2018-02-16 11:35 ] · 6863C768172191F24A7C1263089556F016CFA71D

    Скачать .torrent

    Скачать

    19 KB

    Статус: проверено
    Скачан: 0 раз
    Размер: 3,2 GB
  • Профиль [ЛС]
    Показать сообщения:    

    Текущее время: 22-Сен 18:41

    Часовой пояс: UTC ± 0



    Вы не можете начинать темы
    Вы не можете отвечать на сообщения
    Вы не можете редактировать свои сообщения
    Вы не можете удалять свои сообщения
    Вы не можете голосовать в опросах
    Вы не можете прикреплять файлы к сообщениям
    Вы можете скачивать файлы
    Torrents24.ru открытый BitTorrent Torrents24.pl открытый BitTorrent CyberTorrent.ru открытый BitTorrent BtList.ru рейтинг BitTorrent трекеров Яндекс.Метрика