dolphin ®

Пол:
Не указан
Стаж:
11 месяцев 1 день
Сообщений:
29

Я слышу голоса / Voces- Год выхода: 2020
Страна: Испания
Жанр: ужасы, триллер
Продолжительность: 01:38:26
Перевод: Профессиональный (полное дублирование) Студия «VSI Moscow» |по заказу Netflix|
Субтитры: Русские (форсированные) (внешние .srt*)-Режиссер:
Анхель Гомес Эрнандес / Angel Gomez Hernandez-В ролях:
Родольфо Санчо, Ана Фернандез, Рамон Бареа, Белен Фабра, Лукас Блас, Нереа Баррос, Беатриз Архона, Хосе Бермудес, Хосе Луис Лозано, Рубен Корво-О фильме:
Даниэль переезжает в новый дом. После трагических событий он слышит, как призрак просит о помощи, и решает обратиться к знаменитому эксперту по паранормальным явлениям.- IMDB | КиноПоиск | Сэмпл |-Качество: WEB-DLRip [NF]
Формат: AVI
Видео: 720x304 (2.37:1), 24 fps, XviD build 69 ~1661 kbps avg, 0.32 bit/pixel
Аудио: 48 kHz, AC3 Dolby Digital, 3/2 (L,C,R,l,r) + LFE ch, ~448 kbps avg-

Скриншоты

-

MediaInfo

Код:Общее
Полное имя : D:\Voces_2020_WEB-DLRip_by_Dalemake.avi
Формат : AVI
Формат/Информация : Audio Video Interleave
Размер файла : 1,46 Гбайт
Продолжительность : 1 ч. 38 м.
Общий поток : 2119 Кбит/сек
Программа кодирования : VirtualDubMod 1.5.10.3 | www.virtualdub-fr.org || (build 2550/release)
Библиотека кодирования : VirtualDubMod build 2550/release
Видео
Идентификатор : 0
Формат : MPEG-4 Visual
Профиль формата : Advanced Simple@L5
Настройки формата : BVOP1 / Custom Matrix
Параметр BVOP формата : 1
Параметр QPel формата : Нет
Параметр GMC формата : Без точки перехода
Параметр матрицы формата : Выборочная
Идентификатор кодека : XVID
Идентификатор кодека/Подсказка : XviD
Продолжительность : 1 ч. 38 м.
Битрейт : 1662 Кбит/сек
Ширина : 720 пикселей
Высота : 304 пикселя
Соотношение сторон : 2,35:1
Частота кадров : 24,000 кадра/сек
Цветовое пространство : YUV
Субдискретизация насыщенности : 4:2:0
Битовая глубина : 8 бит
Тип развёртки : Прогрессивная
Метод сжатия : С потерями
Бит/(Пиксели*Кадры) : 0.316
Размер потока : 1,14 Гбайт (78%)
Библиотека кодирования : XviD 69
Аудио
Идентификатор : 1
Формат : AC-3
Формат/Информация : Audio Coding 3
Коммерческое название : Dolby Digital
Идентификатор кодека : 2000
Продолжительность : 1 ч. 38 м.
Вид битрейта : Постоянный
Битрейт : 448 Кбит/сек
Каналы : 6 каналов
ChannelLayout : L R C LFE Ls Rs
Частота : 48,0 КГц
Частота кадров : 31,250 кадров/сек (1536 SPF)
Битовая глубина : 16 бит
Метод сжатия : С потерями
Размер потока : 315 Мбайт (21%)
Выравнивание : Разделение по промежуткам
Продолжительность промежутка : 42 мс. (1,00 видеокадр)
Время предзагрузки промежутка : 500 мс.
ServiceKind/String : Complete Main
-
Профиль [ЛС]
Показать сообщения:    

Текущее время: 20-Янв 19:20

Часовой пояс: UTC ± 0



Вы не можете начинать темы
Вы не можете отвечать на сообщения
Вы не можете редактировать свои сообщения
Вы не можете удалять свои сообщения
Вы не можете голосовать в опросах
Вы не можете прикреплять файлы к сообщениям
Вы не можете скачивать файлы