dolphin ®

Пол:
Не указан
Стаж:
11 месяцев 5 дней
Сообщений:
29

Охота на Санту / Fatman
«Он вам не Дед Мороз»
- Год выхода: 2020
Страна: Великобритания, Канада, США
Жанр: фэнтези, боевик, триллер, комедия
Продолжительность: 01:39:58
Перевод: Профессиональный (многоголосый закадровый) AMS
Субтитры: нет-Режиссер:
Эшом Нелмс / Eshom Nelms, Йен Нелмс / Ian Nelms-В ролях:
Мэл Гибсон, Уолтон Гоггинс, Марианн Жан-Баптист, Чэнс Херстфилд, Шон Бенсон, Паулино Нюнс, Марк Дэй, Дебора Гровер, Мишель Мисти Лэнг, Роберт Бокстэл-О фильме:
Обиженный на Санту мальчик нанимает киллера, чтобы отомстить за плохой подарок. Но он не подозревает, что Санта не так прост и за долгие годы службы приобрел много необычных навыков.-IMDB | КиноПоиск | Сэмпл |-Качество: WEB-DLRip [AMZN]
Формат: AVI
Видео: 720x304 (2.37:1), 23.976 fps, XviD build 69 ~1691 kbps avg, 0.32 bit/pixel
Аудио: 48 kHz, AC3 Dolby Digital, 3/2 (L,C,R,l,r) + LFE ch, ~384 kbps-

Скриншоты

-

MediaInfo

Код:Общее
Полное имя : D:\Fatman_2020_WEB-DLRip_MVO_by_Dalemake.avi
Формат : AVI
Формат/Информация : Audio Video Interleave
Размер файла : 1,46 Гбайт
Продолжительность : 1 ч. 39 м.
Общий поток : 2085 Кбит/сек
Программа кодирования : VirtualDubMod 1.5.10.3 | www.virtualdub-fr.org || (build 2550/release)
Библиотека кодирования : VirtualDubMod build 2550/release
Видео
Идентификатор : 0
Формат : MPEG-4 Visual
Профиль формата : Advanced Simple@L5
Настройки формата : BVOP1 / Custom Matrix
Параметр BVOP формата : 1
Параметр QPel формата : Нет
Параметр GMC формата : Без точки перехода
Параметр матрицы формата : Выборочная
Идентификатор кодека : XVID
Идентификатор кодека/Подсказка : XviD
Продолжительность : 1 ч. 39 м.
Битрейт : 1692 Кбит/сек
Ширина : 720 пикселей
Высота : 304 пикселя
Соотношение сторон : 2,35:1
Частота кадров : 23,976 (24000/1001) кадра/сек
Частота кадров в оригинале : 23,976 (23976/1000) кадра/сек
Цветовое пространство : YUV
Субдискретизация насыщенности : 4:2:0
Битовая глубина : 8 бит
Тип развёртки : Прогрессивная
Метод сжатия : С потерями
Бит/(Пиксели*Кадры) : 0.322
Размер потока : 1,18 Гбайт (81%)
Библиотека кодирования : XviD 69
Аудио
Идентификатор : 1
Формат : AC-3
Формат/Информация : Audio Coding 3
Коммерческое название : Dolby Digital
Идентификатор кодека : 2000
Продолжительность : 1 ч. 39 м.
Вид битрейта : Постоянный
Битрейт : 384 Кбит/сек
Каналы : 6 каналов
ChannelLayout : L R C LFE Ls Rs
Частота : 48,0 КГц
Частота кадров : 31,250 кадров/сек (1536 SPF)
Битовая глубина : 16 бит
Метод сжатия : С потерями
Размер потока : 275 Мбайт (18%)
Выравнивание : Разделение по промежуткам
Продолжительность промежутка : 42 мс. (1,00 видеокадр)
Время предзагрузки промежутка : 500 мс.
ServiceKind/String : Complete Main
-
Профиль [ЛС]
Показать сообщения:    

Текущее время: 25-Янв 09:52

Часовой пояс: UTC ± 0



Вы не можете начинать темы
Вы не можете отвечать на сообщения
Вы не можете редактировать свои сообщения
Вы не можете удалять свои сообщения
Вы не можете голосовать в опросах
Вы не можете прикреплять файлы к сообщениям
Вы не можете скачивать файлы