K15 ®

Пол:
Мужской
Стаж:
11 месяцев
Сообщений:
240

Информация о фильме
Название: Кровные узы
Оригинальное название: Let Him Go
Год выхода: 2020
Жанр: триллер, драма, криминал
Режиссер: Томас Безуча
В ролях: Дайан Лэйн, Кевин Костнер, Лесли Мэнвилл, Кэйли Картер, Бу Бу Стюарт, Джеффри Донован, Уилл Бриттейн, Райан Брюс, Адам Стэффорд, Брэдли Страйкер
О фильме: Бывший шериф Джордж Блэкледж вместе с супругой Маргарет наслаждается спокойной жизнью на ранчо в горах Монтаны. Трагическая гибель их сына навсегда разрушает размеренный уклад жизни благочестивой семьи. ​​​​​​​Теперь все, что у них осталось – это внук, который волей случая попал в руки жестокой и опасной семьи Уибой. Ради возвращения мальчика супруги готовы идти до конца.

Страна: США
Продолжительность: 01:53:59
Перевод: Любительский (многоголосый закадровый) [@MUZOBOZ@]
Субтитры: Английские
Файл
Формат: Matroska
Качество: WEB-DLRip-AVC
Видео: 1024x428 at 23.976 fps, x264@L4.1, ~1076 kbps
Аудио: AC3, 2 ch, ~192 kbps - | Русский | -
Формат субтитров: softsub (SRT)
***Релиз от: -=DoMiNo=-

M/I

x264 [info]: frame I:1338 Avg QP:13.55 size: 44388
x264 [info]: frame P:30952 Avg QP:15.22 size: 13706
x264 [info]: frame B:131700 Avg QP:18.00 size: 3311
General
Format : Matroska
Format version : Version 4
File size : 1.01 GiB
Duration : 1 h 53 min
Overall bit rate : 1 270 kb/s
Movie name : Кровные узы.(2020).WEB-DLRip-AVC.[-=DoMiNo=-]
Encoded date : UTC 2020-11-28 11:46:43
Writing application : mkvmerge v8.3.0 ('Over the Horizon') 64bit
Writing library : libebml v1.3.1 + libmatroska v1.4.2
Cover : Yes
Attachments : Cover.jpg / Cover 2.jpg
Video
ID : 1
Format : AVC
Format/Info : Advanced Video Codec
Format profile : High@L4.1
Format settings : CABAC / 10 Ref Frames
Format settings, CABAC : Yes
Format settings, Reference : 10 frames
Codec ID : V_MPEG4/ISO/AVC
Duration : 1 h 53 min
Bit rate : 1 076 kb/s
Width : 1 024 pixels
Height : 428 pixels
Display aspect ratio : 2.40:1
Frame rate mode : Constant
Frame rate : 23.976 (24000/1001) FPS
Color space : YUV
Chroma subsampling : 4:2:0
Bit depth : 8 bits
Scan type : Progressive
Bits/(Pixel*Frame) : 0.102
Stream size : 877 MiB (85%)
Title : -=DoMiNo=-
Writing library : x264 core 161 r3027 4121277
Encoding settings : cabac=1 / ref=10 / deblock=1:-2:-1 / analyse=0x3:0x133 / me=umh / subme=10 / psy=1 / psy_rd=1.00:0.15 / mixed_ref=1 / me_range=32 / chroma_me=1 / trellis=2 / 8x8dct=1 / cqm=0 / deadzone=21,11 / fast_pskip=1 / chroma_qp_offset=-3 / threads=6 / lookahead_threads=1 / sliced_threads=0 / nr=0 / decimate=1 / interlaced=0 / bluray_compat=0 / constrained_intra=0 / bframes=10 / b_pyramid=2 / b_adapt=2 / b_bias=0 / direct=1 / weightb=1 / open_gop=0 / weightp=2 / keyint=250 / keyint_min=23 / scenecut=40 / intra_refresh=0 / rc_lookahead=60 / rc=crf / mbtree=0 / crf=18.0 / qcomp=0.60 / qpmin=0 / qpmax=69 / qpstep=4 / vbv_maxrate=50000 / vbv_bufsize=62500 / crf_max=0.0 / nal_hrd=none / filler=0 / ip_ratio=1.40 / pb_ratio=1.30 / aq=2:1.00
Language : English
Default : Yes
Forced : No
Color range : Limited
Color primaries : BT.709
Transfer characteristics : BT.709
Matrix coefficients : BT.709
Audio
ID : 2
Format : AC-3
Format/Info : Audio Coding 3
Commercial name : Dolby Digital
Codec ID : A_AC3
Duration : 1 h 53 min
Bit rate mode : Constant
Bit rate : 192 kb/s
Channel(s) : 2 channels
Channel layout : L R
Sampling rate : 48.0 kHz
Frame rate : 31.250 FPS (1536 SPF)
Compression mode : Lossy
Stream size : 157 MiB (15%)
Title : MVO
Language : Russian
Service kind : Complete Main
Default : Yes
Forced : No
Text
ID : 3
Format : UTF-8
Codec ID : S_TEXT/UTF8
Codec ID/Info : UTF-8 Plain Text
Duration : 1 h 45 min
Bit rate : 41 b/s
Count of elements : 1110
Stream size : 32.4 KiB (0%)
Language : English
Default : No
Forced : No
Профиль [ЛС]
Показать сообщения:    

Текущее время: 20-Янв 19:31

Часовой пояс: UTC ± 0



Вы не можете начинать темы
Вы не можете отвечать на сообщения
Вы не можете редактировать свои сообщения
Вы не можете удалять свои сообщения
Вы не можете голосовать в опросах
Вы не можете прикреплять файлы к сообщениям
Вы не можете скачивать файлы