BitTorrent клиенты



Последний выстрел президента / The President's Last Bang / Geuddae geusaramdeul (Им Санг-су / Sang-soo Im) [2005, Южная Корея, драма, криминал, BDRip 1080p] AVO (Евгений Гранкин) + Sub Eng + Original Kor

Ответить на тему
 
Автор Сообщение

Keeper ®

Пол: Не указан

Стаж: 1 год

Сообщений: 499

Создавать темы 07-Фев-2018 20:48

[Цитировать]

Последний выстрел президента / The President's Last Bang / Geuddae geusaramdeul
Страна: Южная Корея
Студия: MK Pictures
Жанр: драма, криминал
Год выпуска: 2005
Продолжительность: 01:42:18
Перевод: Авторский (одноголосый закадровый) Евгений Гранкин
Субтитры: английские
Оригинальная аудиодорожка: корейский
Режиссер: Им Санг-су / Sang-soo Im
В ролях: Сон Чжэ Хо, Хан Сок Кю, Пэк Юн Сик, Вон-чжун Чжон, Чо Сан Гон, Ким Сан Хо, Пён-киль Кван, Ли Чжэ Гу, Сон-вук Ким и др.
Описание: 1970-е годы, Корея. Милитаризованное правительство оказывает постоянное давление на народ. Однако, президент страны Пак Чон Хи проводит всё время развлекаясь и устраивая приёмы. В то же время сразу несколько партий мечтают о захвате власти.
Члены KCIA (корейское ЦРУ), сытые по горло заботой о президентских развлечениях, планируют его убить. После двух выстрелов события в стране принимают неожиданный поворот.
II Сэмпл II IMDB II
Релиз группа:

Тип релиза: BDRip 1080p (The.Presidents.Last.Bang.2005.BluRay.1080p.DTS-HD.MA.5.1.x264-beAst)
Контейнер: MKV
Видео: AVC / 1920x816 / 16:9 / 23.976fps / Bit rate 12200Kbps / High@L4.1
Аудио 1: AC3 / 48.0 KHz / 2ch. / 192kbps / rus / AVO / Евгений Гранкин
Аудио 2: DTS / 48.0 KHz / 6ch. / 1509kbps / 24bit / kor
Формат субтитров: softsub (SRT)

MediaInfo

Общее
Уникальный идентификатор : 200519581033444080255591201695570899688 (0x96DAAAA35658BE93891067FF01B8B2E8)
Полное имя : G:\!!!_torrent\The.President's.Last.Bang.2005.BDRip.1080p_by_vedigo.mkv
Формат : Matroska
Версия формата : Version 4 / Version 2
Размер файла : 9,94 Гбайт
Продолжительность : 1 ч. 42 м.
Общий поток : 13,9 Мбит/сек
Название фильма : The.President's.Last.Bang.2005.BDRip.1080p_by_vedigo
Дата кодирования : UTC 2016-01-19 08:20:41
Программа кодирования : mkvmerge v8.8.0 ('Wind at my back') 64bit
Библиотека кодирования : libebml v1.3.3 + libmatroska v1.4.4
Видео
Идентификатор : 1
Формат : AVC
Формат/Информация : Advanced Video Codec
Профиль формата : High@L4.1
Параметр CABAC формата : Да
Параметр ReFrames формата : 5 кадров
Идентификатор кодека : V_MPEG4/ISO/AVC
Продолжительность : 1 ч. 42 м.
Битрейт : 12,2 Мбит/сек
Ширина : 1920 пикселей
Высота : 816 пикселей
Соотношение сторон : 2,35:1
Режим частоты кадров : Постоянный
Частота кадров : 23,976 (24000/1001) кадра/сек
Цветовое пространство : YUV
Субдискретизация насыщенности : 4:2:0
Битовая глубина : 8 бит
Тип развёртки : Прогрессивная
Бит/(Пиксели*Кадры) : 0.325
Размер потока : 8,72 Гбайт (88%)
Заголовок : The.President's.Last.Bang.2005.BDRip.1080p_by_vedigo
Библиотека кодирования : x264 core 148 r2638 7599210
Настройки программы : cabac=1 / ref=5 / deblock=1:-3:-3 / analyse=0x3:0x133 / me=umh / subme=11 / psy=1 / psy_rd=1.00:0.00 / mixed_ref=1 / me_range=32 / chroma_me=1 / trellis=2 / 8x8dct=1 / cqm=0 / deadzone=21,11 / fast_pskip=0 / chroma_qp_offset=-2 / threads=6 / lookahead_threads=1 / sliced_threads=0 / nr=0 / decimate=0 / interlaced=0 / bluray_compat=0 / constrained_intra=0 / bframes=6 / b_pyramid=2 / b_adapt=2 / b_bias=0 / direct=3 / weightb=1 / open_gop=0 / weightp=2 / keyint=240 / keyint_min=23 / scenecut=40 / intra_refresh=0 / rc_lookahead=60 / rc=2pass / mbtree=1 / bitrate=12200 / ratetol=1.0 / qcomp=0.60 / qpmin=0 / qpmax=69 / qpstep=4 / cplxblur=20.0 / qblur=0.5 / vbv_maxrate=45000 / vbv_bufsize=45000 / nal_hrd=none / filler=0 / ip_ratio=1.40 / aq=1:0.60
Default : Да
Forced : Нет
Аудио #1
Идентификатор : 2
Формат : AC-3
Формат/Информация : Audio Coding 3
Расширение режима : CM (complete main)
Параметр Endianness формата : Big
Идентификатор кодека : A_AC3
Продолжительность : 1 ч. 42 м.
Вид битрейта : Постоянный
Битрейт : 192 Кбит/сек
Каналы : 2 канала
Расположение каналов : Front: L R
Частота : 48,0 КГц
Частота кадров : 31,250 кадров/сек (1536 spf)
Метод сжатия : С потерями
Размер потока : 140 Мбайт (1%)
Заголовок : AVO @ Евгений Гранкин
Язык : Russian
Default : Да
Forced : Нет
Аудио #2
Идентификатор : 3
Формат : DTS
Формат/Информация : Digital Theater Systems
Режим : 16
Параметр Endianness формата : Big
Идентификатор кодека : A_DTS
Продолжительность : 1 ч. 42 м.
Вид битрейта : Постоянный
Битрейт : 1509 Кбит/сек
Каналы : 6 каналов
Расположение каналов : Front: L C R, Side: L R, LFE
Частота : 48,0 КГц
Частота кадров : 93,750 кадра/сек (512 spf)
Битовая глубина : 24 бит
Метод сжатия : С потерями
Размер потока : 1,08 Гбайт (11%)
Заголовок : original
Язык : Korean
Default : Нет
Forced : Нет
Текст
Идентификатор : 4
Формат : UTF-8
Идентификатор кодека : S_TEXT/UTF8
Идентификатор кодека/Информация : UTF-8 Plain Text
Продолжительность : 1 ч. 37 м.
Битрейт : 51 бит/сек
Count of elements : 1055
Размер потока : 36,7 Кбайт (0%)
Заголовок : subtitle eng
Язык : English
Default : Нет
Forced : Нет
Меню
00:00:00.000 : en:00:00:00.000
00:03:34.506 : en:00:03:34.506
00:06:55.832 : en:00:06:55.832
00:09:58.014 : en:00:09:58.014
00:13:17.213 : en:00:13:17.213
00:14:59.315 : en:00:14:59.315
00:16:22.481 : en:00:16:22.481
00:18:39.618 : en:00:18:39.618
00:21:27.828 : en:00:21:27.828
00:26:20.996 : en:00:26:20.996
00:34:25.480 : en:00:34:25.480
00:42:34.969 : en:00:42:34.969
00:54:31.685 : en:00:54:31.685
01:02:17.150 : en:01:02:17.150
01:06:43.833 : en:01:06:43.833
01:12:41.774 : en:01:12:41.774
01:18:15.107 : en:01:18:15.107
01:22:15.347 : en:01:22:15.347
01:29:34.911 : en:01:29:34.911
01:37:43.274 : en:01:37:43.274

Скриншоты


[Профиль] [ЛС]
Показать сообщения:    
Ответить на тему

Текущее время: 20-Фев 01:00

Часовой пояс: UTC + 3



Вы не можете начинать темы
Вы не можете отвечать на сообщения
Вы не можете редактировать свои сообщения
Вы не можете удалять свои сообщения
Вы не можете голосовать в опросах
Вы не можете прикреплять файлы к сообщениям
Вы можете скачивать файлы