Статистика раздачи
Размер:  10,89 GB   |    Зарегистрирован:  5 месяцев 4 дня   |    Скачан:  0 раз

Полного источника не было: Никогда

 
   
 
 

karapuz ®

Пол:
Не указан
Стаж:
5 месяцев 6 дней
Сообщений:
128

Что новенького, Скуби-Ду? / What's New, Scooby-Doo?- Страна: США
Жанр: Детектив, комедия, семейный
Продолжительность: 00:20:17
Года выпуска: 2002-2005
Перевод: Профессиональный (дублированный)
Субтитры: Отсутствуют
Русские субтитры: нет-Режиссёры: Чак Шитз, Джо Сичта, Тим Молтби / Chuck Sheetz, Joe Sichta, Tim Maltby
Роли озвучивали: Фрэнк Уэлкер, Кэйси Касэм, Минди Кон, Грэй ДеЛисл, Джефф Беннетт, Ди Брэдли Бейкер, Джеймс Арнольд Тейлор, Дженнифер Хейл, Коллин О’Шонесси, Стивен Блум-Описание: Скуби-ду и развесёлая компания неутомимых следопытов победоносно вошли в 21-й век с целым арсеналом новых фокусов и трюков по части преследования всякой нечисти и аномалий.
Когда спортсмены на соревновании по сноуборду были подозрительно сняты с дистанции, Скуби-ду и его команда берутся за расследование и приходят к ошеломляющему открытию — Нет страшнее существа, чем снежный человек! В Коста-Рике друзей ожидает мегасенсация, когда ужасающий Гигантозавр выпрыгнет с экрана в кинозал и откроет миру Tайну Третьего Измерения!
Приключения друзей становятся всё более захватывающие.... Разгадай тайну вместе с ними!-Альтернативные раздачи
Семпл-Качество: DVB
Формат: MPG
Видео: MPEG2, 720x576, 25.000 fps, 6.091 Kbps
Аудио: MP2, 48.0 KHz, 2 ch, 192 Kbps-

Список серий

Сезон 1:
01. Нет чудовища хуже чудовища снежного
02. Трёхмерное разрушение
03. Космический шпион
04. Большой страх во время каникул
05. Эта злобная зелёная чудо-машина
06. Да здравствует Лас-Вегас
07. Призрак каруселей
08. Сафари полно неожиданностей
12. Свет! Мотор! Спасайтесь!
13. Помпеи и обстоятельства
14. Сверхъестественное
Сезон 2:
01. Большой аппетит в маленьком Токио

Внимание! Раздача ведётся путём добавления новых серий

Внимание! Раздача ведётся путём добавления новых серий; при каждом добавлении создаётся новый торрент. Чтобы начать докачку новой серии, пользователям необходимо сделать следующее:
(1) остановить скачивание,
(2) удалить старый торрент у себя из клиента (старые серии удалять не надо),
(3) скачать новый торрент и запустить его у себя в клиенте вместо старого, при этом указать клиенту путь в старую папку куда и должно происходить скачивание новых серий.
Ваш клиент при этом должен произвести хеширование (проверку) старой папки (если не производит сам - помогите ему сделать это), и будет докачивать только те серии которых у вас ещё нет. Старые серии при этом не удаляются, а продолжают раздаваться!
Eсли вы уже удалили старые серии, то предотвратить повторную закачку старых серий можно, отжав галочку в соответствующих местах при запуске нового торрента. По возможности, желательно не удалять старые серии как можно дольше чтобы релизёр не столько продолжал раздавать старые серии, а смог сконцентрироваться на новых.

Подробные технические данные

General
Complete name : D:\IPTV\What's New, Scooby-Doo\What's New, Scooby-Doo.s01.e01.mpg
Format : MPEG-PS
File size : 931 MiB
Duration : 20mn 18s
Overall bit rate mode : Variable
Overall bit rate : 6 410 Kbps
Video
ID : 224 (0xE0)
Format : MPEG Video
Format version : Version 2
Format profile : Main@Main
Format settings, BVOP : Yes
Format settings, Matrix : Custom
Format settings, GOP : Variable
Format settings, picture st : Frame
Duration : 20mn 17s
Bit rate mode : Variable
Bit rate : 6 091 Kbps
Maximum bit rate : 15.0 Mbps
Width : 720 pixels
Height : 576 pixels
Display aspect ratio : 4:3
Frame rate : 25.000 fps
Standard : PAL
Color space : YUV
Chroma subsampling : 4:2:0
Bit depth : 8 bits
Scan type : Interlaced
Scan order : Top Field First
Compression mode : Lossy
Bits/(Pixel*Frame) : 0.587
Time code of first frame : 00:00:00:00
Time code source : Group of pictures header
GOP, Open/Closed : Open
Stream size : 884 MiB (95%)
GOP, Open/Closed of first f : Closed
Audio
ID : 192 (0xC0)
Format : MPEG Audio
Format version : Version 1
Format profile : Layer 2
Duration : 20mn 18s
Bit rate mode : Constant
Bit rate : 192 Kbps
Channel(s) : 2 channels
Sampling rate : 48.0 KHz
Compression mode : Lossy
Delay relative to video : -26ms
Stream size : 27.9 MiB (3%)

Скриншоты

[cybertorrent.ru].t2175.torrent 
Торрент: Зарегистрирован [ 2018-02-16 11:35 ] · 80C45B7FD32997612289AB6108E3A35FA70D7F7D

Скачать .torrent

Скачать

15 KB

Статус: проверено
Скачан: 0 раз
Размер: 10,89 GB
Профиль [ЛС]
Показать сообщения:    

Текущее время: 21-Июл 11:29

Часовой пояс: UTC ± 0



Вы не можете начинать темы
Вы не можете отвечать на сообщения
Вы не можете редактировать свои сообщения
Вы не можете удалять свои сообщения
Вы не можете голосовать в опросах
Вы не можете прикреплять файлы к сообщениям
Вы можете скачивать файлы