Статистика раздачи
Размер:  2,17 GB   |    Зарегистрирован:  3 месяца 6 дней   |    Скачан:  0 раз

Полного источника не было: Никогда

 
   
 
 

lopster ®

Пол:
Не указан
Стаж:
3 месяца 6 дней
Сообщений:
612

Ночной дозор / Русская версия
Жанр: мистика, фэнтази, триллер, боевик
Год выпуска: 2004
Продолжительность: 01:56:50
Режиссер: Тимур Бекмамбетов
В ролях: Константин Хабенский, Владимир Меньшов, Мария Порошина, Виктор Вержбицкий, Жанна Фриске, Алексей Чадов, Галина Тюнина, Гоша Куценко, Алексей Маклаков, Александр Самойленко, Валерий Золотухин
Описание: Все знают, что на ночных улицах опасно. Но в данном случае речь идет не о преступниках и маньяках. Когда наступает ночь, и силы Зла властвуют безраздельно, можно столкнуться с теми, с кем не встретишься днем — темными магами, вампирами и прочей нечистью. Их сила столь велика, что справиться с ними обычным оружием невозможно.
Но по следу «ночных охотников» идут те, кто веками сражается с порождениями сумрака и побеждает их, неукоснительно соблюдая при этом Договор, заключенный тысячелетия тому назад между Светлыми и Темными… Имя им — Ночной Дозор. Их предназначение — сохранение равновесия между Добром и Злом, нарушение которого вызывает разрушения, войны, революции, вселенские катастрофы.
Каждый плохой человеческий поступок — измена, предательство, убийство, равно, как и хороший, ложится на чашу весов, перевешивая их то в одну, то в другую сторону. Именно поэтому и силы Света, и силы Тьмы вынуждены существовать в двух мирах: реальном и потустороннем, пытаясь либо подтолкнуть человека к греху, либо отвратить от него…
Доп. информация: Различия Русской и Международной версий фильма -> http://www.movie-censorship.com/report.php?ID=2891
Сравнение с зарубежным DVD -> http://screenshotcomparison.com/comparison/203781
Сэмпл: https://m.sendspace.com/file/nkczr9
Качество видео: DVDRip Исходник
Формат видео: AVI
Видео: XviD / 2196 kbps / 704x384 / 25.000 fps
Аудио: AC3 / 6 ch / 448 kbps / 48 kHz

MediaInfo

General
Complete name : J:\Torrents\Готовые релизы\Ночной дозор (2004) DVDRip (Русская версия).avi
Format : AVI
Format/Info : Audio Video Interleave
Format profile : OpenDML
File size : 2.17 GiB
Duration : 1 h 56 min
Overall bit rate : 2 656 kb/s
Writing application : VirtualDubMod 1.5.10.3 | www.virtualdub-fr.org || (build 2550/release)
Writing library : VirtualDubMod build 2550/release
Video
ID : 0
Format : MPEG-4 Visual
Format profile : Advanced Simple@L5
Format settings, BVOP : 2
Format settings, QPel : No
Format settings, GMC : No warppoints
Format settings, Matrix : Default (H.263)
Codec ID : XVID
Codec ID/Hint : XviD
Duration : 1 h 56 min
Bit rate : 2 196 kb/s
Width : 704 pixels
Height : 384 pixels
Display aspect ratio : 1.85:1
Frame rate : 25.000 FPS
Color space : YUV
Chroma subsampling : 4:2:0
Bit depth : 8 bits
Scan type : Progressive
Compression mode : Lossy
Bits/(Pixel*Frame) : 0.325
Stream size : 1.79 GiB (83%)
Writing library : XviD 1.2.1 (UTC 2008-12-04)
Audio
ID : 1
Format : AC-3
Format/Info : Audio Coding 3
Mode extension : CM (complete main)
Format settings, Endianness : Big
Codec ID : 2000
Duration : 1 h 56 min
Bit rate mode : Constant
Bit rate : 448 kb/s
Channel(s) : 6 channels
Channel positions : Front: L C R, Side: L R, LFE
Sampling rate : 48.0 kHz
Frame rate : 31.250 FPS (1536 spf)
Bit depth : 16 bits
Compression mode : Lossy
Stream size : 374 MiB (17%)
Alignment : Split accross interleaves
Interleave, duration : 40 ms (1.00 video frame)
Interleave, preload duratio : 500 ms

Скриншот c названием фильма

Скриншоты

-

Обновление 25 марта 2017

Новый рип. Наши издатели накосячили с изображением - Чёрные полосы были расположены несимметрично, в следствии чего в старом рипе было обрезано часть изображения снизу. Сравнения старого и нового рипов -> http://screenshotcomparison.com/comparison/203782
Поскольку рип с издания фильма в "смешном переводе" после основных титров были шли титры "смешной версии". Данные титры были вырезаны, в следствии чего продолжительность фильма сократилась
Цитата:
  • Звуковая дорожка взята из раздачи пользователя krat11
[cybertorrent.ru].t218.torrent 
Торрент: Зарегистрирован [ 2018-02-15 15:34 ] · 1DE6D445FD16AB4CFFD5146094EC77D3361757E9

Скачать .torrent

Скачать

11 KB

Статус: проверено
Скачан: 0 раз
Размер: 2,17 GB
Профиль [ЛС]
Показать сообщения:    

Текущее время: 22-Май 00:19

Часовой пояс: UTC ± 0



Вы не можете начинать темы
Вы не можете отвечать на сообщения
Вы не можете редактировать свои сообщения
Вы не можете удалять свои сообщения
Вы не можете голосовать в опросах
Вы не можете прикреплять файлы к сообщениям
Вы можете скачивать файлы