MAGNAT ®

Пол:
Мужской
Стаж:
1 год 9 месяцев
Сообщений:
9230

Любовь и монстры / Love and Monsters
--Страна: Канада, США
Студия: Paramount Pictures, 21 Laps Entertainment, Entertainment One
Жанр: комедия, фантастика, боевик, приключения
Год выпуска: 2020
Продолжительность: 01:48:51--Перевод 1: Любительский (многоголосый закадровый) HDRezka Studio
Перевод 2: Любительский (многоголосый закадровый) Flarrow Films
Субтитры: русские (forced, full v1, Mike Kuznetsov), английские (full, SDH)
Оригинальная аудиодорожка: английский--Режиссер: Майкл Мэтьюз / Michael Matthews
В ролях: Дилан О’Брайен, Джессика Хенвик, Майкл Рукер, Дэниэл Юинг, Ариана Гринблатт, Эллен Холлман, Tre Hale, Пачаро Мзембе, Сени Прити, Амали Голден--Описание: Семь лет назад человечество взорвало подлетавший к Земле астероид, но после этого столкнулось с последствиями - некоторые земные обитатели мутировали в гигантских монстров. Через год население Земли сократилось на 95%. У Джоэла погибли родители, и с тех пор он в компании таких же выживших обитает в подземном бункере. Недавно он поймал радиосигнал другой колонии, где живет его подростковая любовь Эйми, и теперь решил до неё добраться. И это будет непросто, ведь у Джоэла нет никаких навыков выживания, и более того - при виде монстров он впадает в оцепенение.----Тип релиза: BDRip 720p [Love.and.Monsters.2020.720p.BluRay.DD5.1.x264-iFT]
Контейнер: MKV
Видео: MPEG-4 AVC Video / 7483 kbps / 1280x536 / 23,976 fps / 2,40:1 / High Profile 4.1
Аудио 1: Russian AC3 / 5.1 / 48 kHz / 448 kbps |MVO, HDRezka Studio|
Аудио 2: Russian AC3 / 2.0 / 48 kHz / 320 kbps |Flarrow Films|
Аудио 3: English AC3 / 5.1 / 48 kHz / 640 kbps |original|
Формат субтитров: softsub [SRT]

MediaInfo

Код:
Общее
Уникальный идентификатор : 79844869705281334876889732413515923528 (0x3C119003165F4BFEF654CD77A4B48048)
Полное имя : G:\HD\Любовь и монстры.2020.BDRip.720p.mkv
Формат : Matroska
Версия формата : Version 4
Размер файла : 6,76 Гбайт
Продолжительность : 1 ч. 48 м.
Общий поток : 8 895 Кбит/сек
Дата кодирования : UTC 2021-01-03 20:30:57
Программа кодирования : mkvmerge v51.0.0 ('I Wish') 64-bit
Библиотека кодирования : libebml v1.4.0 + libmatroska v1.6.2
Attachments : poster.jpg
Видео
Идентификатор : 1
Формат : AVC
Формат/Информация : Advanced Video Codec
Профиль формата : High@L4.1
Настройки формата : CABAC / 12 Ref Frames
Параметр CABAC формата : Да
Параметр RefFrames формата : 12 кадров
Идентификатор кодека : V_MPEG4/ISO/AVC
Продолжительность : 1 ч. 48 м.
Битрейт : 7 483 Кбит/сек
Ширина : 1 280 пикселей
Высота : 536 пикселей
Соотношение сторон : 2,40:1
Режим частоты кадров : Постоянный
Частота кадров : 23,976 (24000/1001) кадра/сек
Цветовое пространство : YUV
Субдискретизация насыщенности : 4:2:0
Битовая глубина : 8 бит
Тип развёртки : Прогрессивная
Бит/(Пиксели*Кадры) : 0.455
Размер потока : 5,69 Гбайт (84%)
Заголовок : Love.and.Monsters.2020.720p.BluRay.DD5.1.x264-iFT
Библиотека кодирования : x264 core 161 r3018+53 ~ Encoded by Mocunaman in Portugal
Настройки программы : cabac=1 / ref=12 / deblock=1:-3:-3 / analyse=0x3:0x113 / me=umh / subme=11 / psy=1 / fade_compensate=0.00 / psy_rd=1.00:0.00 / mixed_ref=1 / me_range=32 / chroma_me=1 / trellis=2 / 8x8dct=1 / cqm=0 / deadzone=21,11 / fast_pskip=0 / chroma_qp_offset=-2 / threads=17 / lookahead_threads=4 / sliced_threads=0 / nr=0 / decimate=0 / interlaced=0 / bluray_compat=0 / constrained_intra=0 / fgo=0 / bframes=10 / b_pyramid=2 / b_adapt=2 / b_bias=0 / direct=3 / weightb=1 / open_gop=0 / weightp=2 / keyint=250 / keyint_min=23 / scenecut=40 / intra_refresh=0 / rc_lookahead=60 / rc=crf / mbtree=0 / crf=15.3000 / qcomp=0.65 / qpmin=0:0:0 / qpmax=69:69:69 / qpstep=4 / vbv_maxrate=62500 / vbv_bufsize=78125 / crf_max=0.0 / nal_hrd=none / filler=0 / ip_ratio=1.30 / pb_ratio=1.20 / aq=3:0.80 / aq-sensitivity=10.00 / aq-factor=1.00:1.00:1.00 / aq2=0 / aq3=0 / zones=3988,23070,crf=14.8/24396,29118,crf=14.8/43926,46605,crf=14.3/59353,64025,crf=14.3/65834,66192,crf=14.3/79035,92055,crf=14.3/105100,108748,crf=14.8/112092,126516,crf=14.8/143772,144628,crf=14.8
Язык : English
Default : Да
Forced : Нет
Цветовой диапазон : Limited
Основные цвета : BT.709
Характеристики трансфера : BT.709
Коэффициенты матрицы : BT.709
Аудио #1
Идентификатор : 2
Формат : AC-3
Формат/Информация : Audio Coding 3
Коммерческое название : Dolby Digital
Идентификатор кодека : A_AC3
Продолжительность : 1 ч. 48 м.
Вид битрейта : Постоянный
Битрейт : 448 Кбит/сек
Каналы : 6 каналов
Channel layout : L R C LFE Ls Rs
Частота : 48,0 КГц
Частота кадров : 31,250 кадров/сек (1536 SPF)
Метод сжатия : С потерями
Размер потока : 349 Мбайт (5%)
Заголовок : MVO, HDRezka Studio
Язык : Russian
Service kind : Complete Main
Default : Да
Forced : Нет
Аудио #2
Идентификатор : 3
Формат : AC-3
Формат/Информация : Audio Coding 3
Коммерческое название : Dolby Digital
Идентификатор кодека : A_AC3
Продолжительность : 1 ч. 48 м.
Вид битрейта : Постоянный
Битрейт : 320 Кбит/сек
Каналы : 2 канала
Channel layout : L R
Частота : 48,0 КГц
Частота кадров : 31,250 кадров/сек (1536 SPF)
Метод сжатия : С потерями
Размер потока : 249 Мбайт (4%)
Заголовок : MVO, Flarrow Films
Язык : Russian
Service kind : Complete Main
Default : Нет
Forced : Нет
Аудио #3
Идентификатор : 4
Формат : AC-3
Формат/Информация : Audio Coding 3
Коммерческое название : Dolby Digital
Идентификатор кодека : A_AC3
Продолжительность : 1 ч. 48 м.
Вид битрейта : Постоянный
Битрейт : 640 Кбит/сек
Каналы : 6 каналов
Channel layout : L R C LFE Ls Rs
Частота : 48,0 КГц
Частота кадров : 31,250 кадров/сек (1536 SPF)
Метод сжатия : С потерями
Размер потока : 498 Мбайт (7%)
Язык : English
Service kind : Complete Main
Default : Нет
Forced : Нет
Текст #1
Идентификатор : 5
Формат : UTF-8
Идентификатор кодека : S_TEXT/UTF8
Идентификатор кодека/Информация : UTF-8 Plain Text
Продолжительность : 1 ч. 40 м.
Битрейт : 3 бит/сек
Count of elements : 51
Размер потока : 2,67 Кбайт (0%)
Заголовок : forced
Язык : Russian
Default : Да
Forced : Нет
Текст #2
Идентификатор : 6
Формат : UTF-8
Идентификатор кодека : S_TEXT/UTF8
Идентификатор кодека/Информация : UTF-8 Plain Text
Продолжительность : 1 ч. 41 м.
Битрейт : 89 бит/сек
Count of elements : 1476
Размер потока : 66,9 Кбайт (0%)
Заголовок : full v1
Язык : Russian
Default : Нет
Forced : Нет
Текст #3
Идентификатор : 7
Формат : UTF-8
Идентификатор кодека : S_TEXT/UTF8
Идентификатор кодека/Информация : UTF-8 Plain Text
Продолжительность : 1 ч. 41 м.
Битрейт : 96 бит/сек
Count of elements : 1426
Размер потока : 71,7 Кбайт (0%)
Заголовок : Mike Kuznetsov
Язык : Russian
Default : Нет
Forced : Нет
Текст #4
Идентификатор : 8
Формат : UTF-8
Идентификатор кодека : S_TEXT/UTF8
Идентификатор кодека/Информация : UTF-8 Plain Text
Продолжительность : 1 ч. 41 м.
Битрейт : 62 бит/сек
Count of elements : 1406
Размер потока : 46,8 Кбайт (0%)
Заголовок : full
Язык : English
Default : Нет
Forced : Нет
Текст #5
Идентификатор : 9
Формат : UTF-8
Идентификатор кодека : S_TEXT/UTF8
Идентификатор кодека/Информация : UTF-8 Plain Text
Продолжительность : 1 ч. 42 м.
Битрейт : 75 бит/сек
Count of elements : 1687
Размер потока : 57,1 Кбайт (0%)
Заголовок : SDH
Язык : English
Default : Нет
Forced : Нет
Меню
00:00:00.000 : en:Chapter 1
00:10:19.369 : en:Chapter 2
00:20:14.505 : en:Chapter 3
00:28:48.644 : en:Chapter 4
00:34:54.968 : en:Chapter 5
00:41:15.515 : en:Chapter 6
00:50:20.976 : en:Chapter 7
00:54:56.460 : en:Chapter 8
01:04:05.717 : en:Chapter 9
01:13:02.670 : en:Chapter 10
01:20:52.473 : en:Chapter 11
01:27:57.105 : en:Chapter 12
01:36:45.466 : en:Chapter 13
01:42:38.527 : en:Chapter 14

Скриншоты


Профиль [ЛС]
Показать сообщения:    

Текущее время: 26-Янв 15:09

Часовой пояс: UTC ± 0



Вы не можете начинать темы
Вы не можете отвечать на сообщения
Вы не можете редактировать свои сообщения
Вы не можете удалять свои сообщения
Вы не можете голосовать в опросах
Вы не можете прикреплять файлы к сообщениям
Вы не можете скачивать файлы