MAGNAT ®

Пол:
Мужской
Стаж:
1 год 9 месяцев
Сообщений:
9230

Дублерша / The Stand In
Страна: США
Студия: The Exchange, Flower Films (I), Wrigley Media
Жанр: комедия
Год выпуска: 2020
Продолжительность: 01:41:58
Перевод: Профессиональный (дублированный) iTunes
Субтитры: английские
Оригинальная аудиодорожка: английский
Режиссер: Джеми Бэббит / Jamie Babbit
В ролях: Дрю Бэрримор, Майкл Зеген, ТиДжей Миллер, Холланд Тейлор, Элли Кемпер, Эндрю Рэннеллс, Венди Мередит, Лина Данэм, Мишель Бюто, Тедди Колука, Чарли Барнетт
Описание: Звезда комедий Кэнди Блэк ценит в этом мире лишь три вещи: секс, виски и драку с папарацци. После очередной выходки ей грозят групповая терапия, общество анонимных алкоголиков и исправительные работы. Увы, это не то, о чем ей хотелось бы думать. Пока звезду тиранит мозгоправ, её место занимает ее же дублёрша. Она мила, талантлива и не прочь избавиться от оригинала.
Тип релиза: WEB-DL 1080p
Контейнер: MKV
Видео: MPEG-4 AVC, 4566 Kbit/s, 1914x794 (2.40:1), 23.976 fps
Аудио 1: 48 kHz, AC3 Dolby Digital, 3/2 (L, C, R, l, r) + LFE ch, ~384 kbps | RUS | iTunes
Аудио 2: 48 kHz, AC3 Dolby Digital, 3/2 (L, C, R, l, r) + LFE ch, ~384 kbps | ENG | Original
Формат субтитров: softsub (SRT)

MediaInfo

The.Stand.In.2020.WEB-DL.1080p.ELEKTRI4KA.UNIONGANG.mkv
Format : Matroska
Format version : Version 4
File size : 3.80 GiB
Duration : 1 h 41 min
Overall bit rate : 5 336 kb/s
Movie name : The Stand In 2020 - ELEKTRI4KA
Encoded date : UTC 2021-01-02 19:06:52
Writing application : mkvmerge v51.0.0 ('I Wish') 64-bit
Writing library : libebml v1.4.0 + libmatroska v1.6.2
Video
ID : 1
Format : AVC
Format/Info : Advanced Video Codec
Format profile : High@L4
Format settings : CABAC / 5 Ref Frames
Format settings, CABAC : Yes
Format settings, Reference frames : 5 frames
Codec ID : V_MPEG4/ISO/AVC
Duration : 1 h 41 min
Bit rate : 4 566 kb/s
Width : 1 914 pixels
Height : 794 pixels
Display aspect ratio : 2.40:1
Frame rate mode : Constant
Frame rate : 23.976 (24000/1001) FPS
Color space : YUV
Chroma subsampling : 4:2:0
Bit depth : 8 bits
Scan type : Progressive
Bits/(Pixel*Frame) : 0.125
Stream size : 3.25 GiB (86%)
Language : English
Default : Yes
Forced : No
Color range : Limited
Color primaries : BT.709
Transfer characteristics : BT.709
Matrix coefficients : BT.709
Audio #1
ID : 2
Format : AC-3
Format/Info : Audio Coding 3
Commercial name : Dolby Digital
Codec ID : A_AC3
Duration : 1 h 41 min
Bit rate mode : Constant
Bit rate : 384 kb/s
Channel(s) : 6 channels
Channel layout : L R C LFE Ls Rs
Sampling rate : 48.0 kHz
Frame rate : 31.250 FPS (1536 SPF)
Compression mode : Lossy
Stream size : 280 MiB (7%)
Title : Dub( iTunes)
Language : Russian
Service kind : Complete Main
Default : Yes
Forced : No
Audio #2
ID : 3
Format : AC-3
Format/Info : Audio Coding 3
Commercial name : Dolby Digital
Codec ID : A_AC3
Duration : 1 h 41 min
Bit rate mode : Constant
Bit rate : 384 kb/s
Channel(s) : 6 channels
Channel layout : L R C LFE Ls Rs
Sampling rate : 48.0 kHz
Frame rate : 31.250 FPS (1536 SPF)
Compression mode : Lossy
Stream size : 280 MiB (7%)
Title : Original
Language : English
Service kind : Complete Main
Default : No
Forced : No
Text
ID : 4
Format : UTF-8
Codec ID : S_TEXT/UTF8
Codec ID/Info : UTF-8 Plain Text
Duration : 1 h 33 min
Bit rate : 79 b/s
Count of elements : 1559
Stream size : 54.5 KiB (0%)
Title : Full
Language : English
Default : No
Forced : No

Скриншоты



Профиль [ЛС]
Показать сообщения:    

Текущее время: 26-Янв 14:29

Часовой пояс: UTC ± 0



Вы не можете начинать темы
Вы не можете отвечать на сообщения
Вы не можете редактировать свои сообщения
Вы не можете удалять свои сообщения
Вы не можете голосовать в опросах
Вы не можете прикреплять файлы к сообщениям
Вы не можете скачивать файлы