MAGNAT ®

Пол:
Мужской
Стаж:
1 год 9 месяцев
Сообщений:
9230

Грекзит / Adults in the room
Страна: Франция, Греция
Студия: K.G. Productions, Wild Bunch, Elle Driver
Жанр: драма, исторический
Год выпуска: 2019
Продолжительность: 02:07:29
Перевод: Профессиональный (многоголосый закадровый) - iTunes
Субтитры: французские (полные), французские (цветные для слабослышащих), английские (на иностранную речь), греческие
Оригинальная аудиодорожка: английский
Режиссер: Коста-Гаврас / Costa-Gavras
В ролях: Кристос Лулис, Александрос Бурдумис, Ульрих Тукур, Даан Шуурманс, Кристос Стергиоглоу, Димитрис Тарлу, Жозиан Пинсон, Корнелиус Обонья, Венсан Немет, Орельен Рекуан, Александрос Логотетис, Танос Токакис, Темис Пану, Георг Ленц, Мария Протопаппа, Франческо Аквароли, Валерия Голино, Гианнис Далианис, Никос Псаррас, Перис Михайлидис, Георгиана Далара, Колин Стинтон, Жорж Коррафас, Акис Сакеллариу, Йоргос Гластрас, Хенрик Бирк, Дамьен Монжен, Дэн Фреденбёрг, Димитрис Петропулос, Тревор Селлерс, Мария Апостолоаки, Дросос Скотис, Джей Лим, Джеймс М. Лейн, Михалис Диамантидис, Адам Арнольд, Давид Луке, Адриан Фрилинг, Дункан Скиннер, Йен Робертсон, Джозеф Резвин, Майкл Сибил, Кристиан Гаврас, Вики Кампури, Мария Патакиа, Костас Пассалис, Зинос Панагиотидис, Стилянос Лигидакис, Панагиотис Лукиссас, Роберт Какоу, Ширмо Кеке, Питер Рандл, Никос Ганакулас, Серафита Грегориаду, Елени Аггелуди, Мария Псарологоу, Спирос Казианис, Полидорос Воятзис, Аргирис Гаганис, Димитрис Лалос, Симеон Цакирис, Костас Андалопулос, Михалис Парибодха Кристопулос, Елена Ментзелу, Джессика Форд, Гиоргос Евгеникос, Спирос Пулис, Эммануил Лигнос, Джеймс Олвиер Данн, Джеймс Жерар, Барнеби Эппс, Мартин Вон Льюис, Рэйчел Уильямс, Филип Шурер, Робби Нок, Сандис Милтовикс, Майк Коллье, Агата Прозоровица, Каспарс Зале, Джанис Лаизанс, Ольга Дамани, Вассилис Вассиликос, Маттео Малекакис, Александрос И. Варуксис, Дэвид Равстром, Катерина-Каталина Касимати, Антонис Стамопулос, Скирах Арчер, Василлис Балкизас, Гиоргос Балтзакис, Мариос Бекас, Кристина Брикман, Филип Карни, Теодорос Чацзиаргиропулос, Стефанос Чатзигеоргиу, Василис Кристопулос, Томми Д'Аквисто, Кристос Даулизис, Федерико Ферраро, Филиппос Фертис, Димитриос Фукас, Файдра Фурули, Панагиотис Фраггис, Константинос Геламерис, Манос Геронимакис, Элиас Гиаркиас, Апостолос Иоакимидис, Гианни Карагиоргис, Тодорис Котроцос, Танос Коцис, Джесин Котзинг, Теодорос Кукрас, Аристогенис Кирцис, Евангелос Лафарас, Василис Лемперос, Димитра Лимниу, Гианнис Манцис, Антонис Маркос, Томас Маврогонатос, Сергей Панфилов-Молодой, Василис Нотис, Хорхе Варукс Пердики, Ариель Фернандо Перес, Димитрис Поплидис, Афродита Райкопулу, Ванесса Руане, Гианнис Саккулис, Анна Шлебенер, Эммануил Теодороакис, Василейос Тилемачу, Михалис Цорцис, Джулиан Уильямс, Катерина Зафейропулу, Дороти Зиглер, Марина Аргирополу, Кристос Каравевас, Рена Киприоти, Дитра Мацантони, Кристина Вавелис
Описание: Сюжет фильма раскрывает детали мучительных переговоров между Грецией и странами ЕС во время долгового кризиса в стране в 2015 году. Яннис Варуфакис пытался уговорить страны ЕС хотя бы частично списать внешний долг Греции и ослабить политику «строгой экономии».
Доп. информация: Найденный в сети рип сделан с этого исходника - http://rustorka.me/viewtopic.php?t=5989776.
Сэмпл: https://yadi.sk/i/HTCt-E-Pu7M2gA
Тип релиза: BDRip 1080p
Контейнер: MKV
Видео: 13900 Кбит/сек, AVC 1920*806 (2,40:1), 23,976 кадра/сек, CABAC
Аудио: Русский, 384 Кбит/сек, 48,0 КГц, 6 каналов, AC-3
Аудио 2: Французский, 1509 Кбит/сек, 48,0 КГц, 24 бит, 6 каналов, DTS - дубляж
Аудио 3: Английский, 1509 Кбит/сек, 48,0 КГц, 24 бит, 6 каналов, DTS
Формат субтитров: softsub (SRT)

MediaInfo

Общее
Уникальный идентификатор : 81887790180782139636997636461042989497 (0x3D9B03C49DF12CD3DAA5AF2386C1F9B9)
Полное имя : F:\MONAR\Видео\Художественные фильмы\Зарубежное кино\Грекзит (2019) BDRip 1080p.mkv
Формат : Matroska
Версия формата : Version 4
Размер файла : 15,4 Гбайт
Продолжительность : 2 ч. 7 м.
Общий поток : 17,3 Мбит/сек
Название фильма : Adults in the room (2019)
Дата кодирования : UTC 2020-12-28 15:56:12
Программа кодирования : mkvmerge v51.0.0 ('I Wish') 64-bit
Библиотека кодирования : libebml v1.4.0 + libmatroska v1.6.2
Видео
Идентификатор : 1
Формат : AVC
Формат/Информация : Advanced Video Codec
Профиль формата : High@L4.1
Настройки формата : CABAC / 5 Ref Frames
Параметр CABAC формата : Да
Параметр RefFrames формата : 5 кадров
Идентификатор кодека : V_MPEG4/ISO/AVC
Продолжительность : 2 ч. 7 м.
Битрейт : 13,9 Мбит/сек
Ширина : 1 920 пикселей
Высота : 806 пикселей
Соотношение сторон : 2,40:1
Режим частоты кадров : Постоянный
Частота кадров : 23,976 (24000/1001) кадра/сек
Цветовое пространство : YUV
Субдискретизация насыщенности : 4:2:0
Битовая глубина : 8 бит
Тип развёртки : Прогрессивная
Бит/(Пиксели*Кадры) : 0.375
Размер потока : 12,4 Гбайт (80%)
Библиотека кодирования : x264 core 160 r3000+53 e3e4c3e t_mod_New [(8 & 10)-bit@all X86_64]
Настройки программы : cabac=1 / ref=5 / deblock=1:-3:-3 / analyse=0x3:0x133 / me=umh / subme=10 / psy=1 / fade_compensate=0.00 / psy_rd=0.98:0.00 / mixed_ref=1 / me_range=32 / chroma_me=1 / trellis=2 / 8x8dct=1 / cqm=0 / deadzone=21,11 / fast_pskip=0 / chroma_qp_offset=-2 / threads=18 / lookahead_threads=4 / sliced_threads=0 / nr=0 / decimate=0 / interlaced=0 / bluray_compat=0 / constrained_intra=0 / fgo=0 / bframes=10 / b_pyramid=2 / b_adapt=2 / b_bias=0 / direct=3 / weightb=1 / open_gop=0 / weightp=2 / keyint=240 / keyint_min=23 / scenecut=40 / intra_refresh=0 / rc_lookahead=60 / rc=crf / mbtree=0 / crf=18.0500 / qcomp=0.65 / qpmin=0:0:0 / qpmax=69:69:69 / qpstep=4 / vbv_maxrate=62500 / vbv_bufsize=78125 / crf_max=0.0 / nal_hrd=none / filler=0 / ip_ratio=1.35 / pb_ratio=1.25 / aq=3:0.90 / aq-sensitivity=10.00 / aq-factor=1.00:1.00:1.00 / aq2=0 / aq3=0
Язык : English
Default : Да
Forced : Нет
Цветовой диапазон : Limited
Основные цвета : BT.709
Характеристики трансфера : BT.709
Коэффициенты матрицы : BT.709
Аудио #1
Идентификатор : 2
Формат : AC-3
Формат/Информация : Audio Coding 3
Коммерческое название : Dolby Digital
Идентификатор кодека : A_AC3
Продолжительность : 2 ч. 7 м.
Вид битрейта : Постоянный
Битрейт : 384 Кбит/сек
Каналы : 6 каналов
Channel layout : L R C LFE Ls Rs
Частота : 48,0 КГц
Частота кадров : 31,250 кадров/сек (1536 SPF)
Метод сжатия : С потерями
Размер потока : 350 Мбайт (2%)
Заголовок : MVO
Язык : Russian
Service kind : Complete Main
Default : Да
Forced : Нет
Аудио #2
Идентификатор : 3
Формат : DTS
Формат/Информация : Digital Theater Systems
Идентификатор кодека : A_DTS
Продолжительность : 2 ч. 7 м.
Вид битрейта : Постоянный
Битрейт : 1 509 Кбит/сек
Каналы : 6 каналов
Channel layout : C L R Ls Rs LFE
Частота : 48,0 КГц
Частота кадров : 93,750 кадра/сек (512 SPF)
Битовая глубина : 24 бит
Метод сжатия : С потерями
Размер потока : 1,34 Гбайт (9%)
Заголовок : original
Язык : French
Default : Нет
Forced : Нет
Аудио #3
Идентификатор : 4
Формат : DTS
Формат/Информация : Digital Theater Systems
Идентификатор кодека : A_DTS
Продолжительность : 2 ч. 7 м.
Вид битрейта : Постоянный
Битрейт : 1 509 Кбит/сек
Каналы : 6 каналов
Channel layout : C L R Ls Rs LFE
Частота : 48,0 КГц
Частота кадров : 93,750 кадра/сек (512 SPF)
Битовая глубина : 24 бит
Метод сжатия : С потерями
Размер потока : 1,34 Гбайт (9%)
Заголовок : original
Язык : English
Default : Нет
Forced : Нет
Текст #1
Идентификатор : 5
Формат : UTF-8
Идентификатор кодека : S_TEXT/UTF8
Идентификатор кодека/Информация : UTF-8 Plain Text
Продолжительность : 2 ч. 5 м.
Битрейт : 57 бит/сек
Count of elements : 1613
Размер потока : 52,9 Кбайт (0%)
Заголовок : full
Язык : French
Default : Нет
Forced : Нет
Текст #2
Идентификатор : 6
Формат : PGS
Режим смешивания : zlib
Идентификатор кодека : S_HDMV/PGS
Идентификатор кодека/Информация : Picture based subtitle format used on BDs/HD-DVDs
Продолжительность : 2 ч. 6 м.
Битрейт : 37,0 Кбит/сек
Count of elements : 3974
Размер потока : 33,5 Мбайт (0%)
Заголовок : SDH
Язык : French
Default : Нет
Forced : Нет
Текст #3
Идентификатор : 7
Формат : UTF-8
Идентификатор кодека : S_TEXT/UTF8
Идентификатор кодека/Информация : UTF-8 Plain Text
Продолжительность : 1 ч. 55 м.
Битрейт : 25 бит/сек
Count of elements : 757
Размер потока : 21,7 Кбайт (0%)
Заголовок : full
Язык : English
Default : Нет
Forced : Нет
Текст #4
Идентификатор : 8
Формат : PGS
Режим смешивания : zlib
Идентификатор кодека : S_HDMV/PGS
Идентификатор кодека/Информация : Picture based subtitle format used on BDs/HD-DVDs
Продолжительность : 2 ч. 6 м.
Битрейт : 19,9 Кбит/сек
Count of elements : 2060
Размер потока : 18,0 Мбайт (0%)
Заголовок : full
Язык : Greek
Default : Нет
Forced : Нет
Меню
00:00:00.000 : :Chapter 01
00:07:52.180 : :Chapter 02
00:17:19.580 : :Chapter 03
00:28:13.150 : :Chapter 04
00:36:37.612 : :Chapter 05
00:43:43.287 : :Chapter 06
00:55:40.671 : :Chapter 07
01:05:49.112 : :Chapter 08
01:13:09.385 : :Chapter 09
01:18:18.360 : :Chapter 10
01:25:34.296 : :Chapter 11
01:33:03.203 : :Chapter 12
01:40:47.250 : :Chapter 13
01:48:19.034 : :Chapter 14
01:56:41.870 : :Chapter 15
02:02:20.333 : :Chapter 16

Скриншоты

Профиль [ЛС]
Показать сообщения:    

Текущее время: 26-Янв 15:23

Часовой пояс: UTC ± 0



Вы не можете начинать темы
Вы не можете отвечать на сообщения
Вы не можете редактировать свои сообщения
Вы не можете удалять свои сообщения
Вы не можете голосовать в опросах
Вы не можете прикреплять файлы к сообщениям
Вы не можете скачивать файлы