MAGNAT ®

Пол:
Мужской
Стаж:
1 год 9 месяцев
Сообщений:
9230

Мой дорогой убийца / Mio caro assassino / My dear killer
Страна: Италия, Испания
Студия: B.R.C. Produzione S.r.l., Kramot Cinematografica, Tecisa
Жанр: триллер, детектив
Год выпуска: 1972
Продолжительность: 01:40:01--Перевод 1: Профессиональный (многоголосый закадровый)
Перевод 2: Авторский (одноголосный закадровый)
Субтитры: английские
Оригинальная аудиодорожка: итальянская--Режиссер: Тонино Валерии / Tonino Valerii--В ролях: Джордж Хилтон, Сальво Рандоне, Вильям Бергер, Марилу Толо, Мануэль Сарсо, Пэтти Шепард, Пьеро Лулли, Хельга Лине, Туллио Валли, Данте Маджио и др.--Описание: Неуловимый убийца устраняет каждого, кто хоть на дюйм приблизится к его тайне - к давнему нераскрытому делу о похищении и последующем убийстве девочки и её отца. Душителю противостоит инспектор Лука Перетти. Он встречается с людьми, которые хоть как-то могут помочь в расследовании, а следующей же ночью приходит убийца... Как же найти маньяка, если его основная улика - рисунок маленькой девочки?--]-Тип релиза: BDRip 720p (Исходник: My.Dear.Killer.1972.BDRemux.1080p)
Контейнер: MKV
Видео кодек: H.264
Аудио кодек: DTS, AC-3
Видео: MPEG4/AVC, 2.40:1, 23.976 (24000/1001) FPS, 1280x536p, 11.4 Mb/s
Аудио 1: Русский, AC-3, 48.0 kHz, 2.0, 192 kb/s - многоголосый закадровый ТРК Петербург 5 канал
Аудио 2: Русский, AC-3, 48.0 kHz, 2.0, 192 kb/s - авторский одноголосный В. Сонькин
Аудио 3: Итальянский, DTS, 48.0 kHz, 2.0, 1509 kb/s, 24 bit
Формат субтитров: softsub (SRT)

MediaInfo

x264
x264 [info]: profile Progressive High, level 4.1, 4:2:0, 8-bit
x264 [info]: frame I:890 Avg QP:16.77 size:126091
x264 [info]: frame P:24105 Avg QP:18.76 size: 75523
x264 [info]: frame B:118905 Avg QP:19.36 size: 55373
x264 [info]: consecutive B-frames: 0.9% 0.5% 1.1% 6.1% 11.8% 53.5% 10.8% 3.0% 3.6% 4.2% 1.6% 0.5% 0.6% 0.3% 0.2% 0.1% 1.2%
x264 [info]: kb/s:11352.26
encoded 143900 frames, 1.71 fps, 11352.26 kb/s
Общее
Формат : Matroska
Версия формата : Version 4
Размер файла : 9,26 Гбайт
Продолжительность : 1 ч. 40 м.
Общий поток : 13,2 Мбит/сек
Название фильма : My.Dear.Killer.1972 - Rutracker
Дата кодирования : UTC 2020-12-29 08:14:28
Программа кодирования : mkvmerge v50.0.0 ('Awakenings') 64-bit
Библиотека кодирования : libebml v1.4.0 + libmatroska v1.6.2
Обложка : Yes
Attachments : cover.jpg
Видео
Идентификатор : 1
Формат : AVC
Формат/Информация : Advanced Video Codec
Профиль формата : High@L4.1
Настройки формата : CABAC / 12 Ref Frames
Параметр CABAC формата : Да
Параметр RefFrames формата : 12 кадров
Идентификатор кодека : V_MPEG4/ISO/AVC
Продолжительность : 1 ч. 40 м.
Битрейт : 11,4 Мбит/сек
Ширина : 1 280 пикселей
Высота : 536 пикселей
Соотношение сторон : 2,40:1
Режим частоты кадров : Постоянный
Частота кадров : 23,976 (24000/1001) кадра/сек
Цветовое пространство : YUV
Субдискретизация насыщенности : 4:2:0
Битовая глубина : 8 бит
Тип развёртки : Прогрессивная
Бит/(Пиксели*Кадры) : 0.690
Размер потока : 7,93 Гбайт (86%)
Заголовок : My.Dear.Killer.1972 - ripped by <<LION1234>>
Библиотека кодирования : x264 core 157 r2969 d4099dd
Настройки программы : cabac=1 / ref=12 / deblock=1:-3:-3 / analyse=0x3:0x113 / me=umh / subme=10 / psy=1 / psy_rd=1.10:0.00 / mixed_ref=1 / me_range=32 / chroma_me=1 / trellis=2 / 8x8dct=1 / cqm=0 / deadzone=21,11 / fast_pskip=0 / chroma_qp_offset=-2 / threads=6 / lookahead_threads=1 / sliced_threads=0 / nr=0 / decimate=0 / interlaced=0 / bluray_compat=0 / constrained_intra=0 / bframes=16 / b_pyramid=2 / b_adapt=2 / b_bias=0 / direct=1 / weightb=1 / open_gop=0 / weightp=2 / keyint=240 / keyint_min=23 / scenecut=40 / intra_refresh=0 / rc_lookahead=40 / rc=crf / mbtree=0 / crf=18.1 / qcomp=0.64 / qpmin=0 / qpmax=69 / qpstep=4 / vbv_maxrate=62500 / vbv_bufsize=78125 / crf_max=0.0 / nal_hrd=none / filler=0 / ip_ratio=1.30 / pb_ratio=1.10 / aq=3:0.74
Default : Да
Forced : Нет
Аудио #1
Идентификатор : 2
Формат : AC-3
Формат/Информация : Audio Coding 3
Коммерческое название : Dolby Digital
Идентификатор кодека : A_AC3
Продолжительность : 1 ч. 40 м.
Вид битрейта : Постоянный
Битрейт : 192 Кбит/сек
Каналы : 2 канала
Channel layout : L R
Частота : 48,0 КГц
Частота кадров : 31,250 кадров/сек (1536 SPF)
Метод сжатия : С потерями
Размер потока : 137 Мбайт (1%)
Заголовок : русский MVO ТРК Петербург 5 канал
Язык : Russian
Service kind : Complete Main
Default : Да
Forced : Нет
Аудио #2
Идентификатор : 3
Формат : AC-3
Формат/Информация : Audio Coding 3
Коммерческое название : Dolby Digital
Идентификатор кодека : A_AC3
Продолжительность : 1 ч. 40 м.
Вид битрейта : Постоянный
Битрейт : 192 Кбит/сек
Каналы : 2 канала
Channel layout : L R
Частота : 48,0 КГц
Частота кадров : 31,250 кадров/сек (1536 SPF)
Метод сжатия : С потерями
Размер потока : 137 Мбайт (1%)
Заголовок : русский AVO В. Сонькин
Язык : Russian
Service kind : Complete Main
Default : Нет
Forced : Нет
Аудио #3
Идентификатор : 4
Формат : DTS
Формат/Информация : Digital Theater Systems
Идентификатор кодека : A_DTS
Продолжительность : 1 ч. 40 м.
Вид битрейта : Постоянный
Битрейт : 1 509 Кбит/сек
Каналы : 2 канала
Channel layout : L R
Частота : 48,0 КГц
Частота кадров : 93,750 кадра/сек (512 SPF)
Битовая глубина : 24 бит
Метод сжатия : С потерями
Размер потока : 1,05 Гбайт (11%)
Заголовок : итальянский
Язык : Italian
Default : Нет
Forced : Нет
Текст
Идентификатор : 5
Формат : UTF-8
Идентификатор кодека : S_TEXT/UTF8
Идентификатор кодека/Информация : UTF-8 Plain Text
Продолжительность : 1 ч. 36 м.
Битрейт : 52 бит/сек
Count of elements : 991
Размер потока : 36,9 Кбайт (0%)
Заголовок : английские
Язык : English
Default : Нет
Forced : Нет
Меню
00:00:00.000 : :01
00:20:23.723 : :02
00:40:55.453 : :03
01:01:35.192 : :04
01:21:16.872 : :05

Скриншоты

Профиль [ЛС]
Показать сообщения:    

Текущее время: 26-Янв 14:14

Часовой пояс: UTC ± 0



Вы не можете начинать темы
Вы не можете отвечать на сообщения
Вы не можете редактировать свои сообщения
Вы не можете удалять свои сообщения
Вы не можете голосовать в опросах
Вы не можете прикреплять файлы к сообщениям
Вы не можете скачивать файлы