MAGNAT ®

Пол:
Мужской
Стаж:
1 год 9 месяцев
Сообщений:
9230

Давай сделаем это / Maske ku vi
Страна: Дания
Жанр: драма, детектив
Год выпуска: 1976
Продолжительность: 01:32:54
Перевод 1: Одноголосый закадровый - Александр Дасевич
Перевод 2: Одноголосый закадровый - Василий Кошкин
Субтитры: русские, английские, немецкие
Оригинальная аудиодорожка: датский
Режиссеры: Лассе Нилсен / Lasse Nielsen, Мортен Арнфред / Morten Arnfred
В ролях: Мари-Луиза Конинк, Оле Эрнст, Мортен Ховман, Бет Лендорф, Оле Мейер, Марианн Грот Свендсен, Кирстен Сёберг, Иб Тардини, Карл Вагнер
Описание: 15-летний Ким — обычный подросток, предоставленный по большей части сам себе. Родители Кима в разводе и мать, с которой подросток живет в небольшой квартире, не очень довольна сыном, постоянно упрекая мальчика в безответственности и бесхарактерности. Однажды Ким вместе с незнакомой ему сверстницей попадает в заложники при ограблении банка, но, подружившись с предводителем грабителей, Киму со своей новой знакомой удается сбежать от них. Поселившись на какое-то время в пустующем доме, подростки влюбляются друг в друга...
Качество видео: WEB-DL 1080p
Формат видео: MKV
Видео: AVC, 1920x1080 (16:9), 25.000 fps, 3950 Kbps, 0.076 bit/pixe
Аудио 1: Russian (AC3, 2 ch, 224 kbps, 16 bits, 48.0 KHz) - Дасевич
Аудио 2: Russian (AC3, 2 ch, 192 kbps, 16 bits, 48.0 KHz) - Кошкин
Аудио 3: Danish (AC3, 2 ch, 320 kbps, 16 bits, 48.0 KHz) - оригинал
Формат субтитров: softsub (SRT)

MediaInfo

General
Unique ID : 197584113123363220601415702600125942990 (0x94A550E55F624D9096F36DDC42FA8CCE)
Complete name : С:\Давай сделаем это Maske ku vi (1976) WEB-DL 1080p.mkv
Format : Matroska
Format version : Version 2
File size : 3.01 GiB
Duration : 1 h 32 min
Overall bit rate : 4 644 kb/s
Encoded date : UTC 2020-12-28 22:14:44
Writing application : mkvmerge v4.1.1 ('Bouncin' Back') сборка от Jul 3 2010 22:54:08
Writing library : libebml v1.0.0 + libmatroska v1.0.0
Video
ID : 1
Format : AVC
Format/Info : Advanced Video Codec
Format profile : High@L4.1
Format settings, CABAC : Yes
Format settings, ReFrames : 4 frames
Codec ID : V_MPEG4/ISO/AVC
Duration : 1 h 32 min
Bit rate : 3 950 kb/s
Width : 1 920 pixels
Height : 1 080 pixels
Display aspect ratio : 16:9
Frame rate mode : Constant
Frame rate : 25.000 FPS
Color space : YUV
Chroma subsampling : 4:2:0
Bit depth : 8 bits
Scan type : Progressive
Bits/(Pixel*Frame) : 0.076
Stream size : 2.48 GiB (82%)
Writing library : x264 core 142 r2389 956c8d8
Encoding settings : cabac=1 / ref=4 / deblock=1:0:0 / analyse=0x3:0x113 / me=umh / subme=8 / psy=1 / psy_rd=1.00:0.00 / mixed_ref=1 / me_range=16 / chroma_me=1 / trellis=1 / 8x8dct=1 / cqm=0 / deadzone=21,11 / fast_pskip=1 / chroma_qp_offset=-2 / threads=24 / lookahead_threads=4 / sliced_threads=0 / nr=0 / decimate=1 / interlaced=0 / bluray_compat=0 / constrained_intra=0 / bframes=3 / b_pyramid=2 / b_adapt=2 / b_bias=0 / direct=3 / weightb=1 / open_gop=0 / weightp=2 / keyint=50 / keyint_min=26 / scenecut=0 / intra_refresh=0 / rc_lookahead=50 / rc=abr / mbtree=1 / bitrate=3950 / ratetol=1.0 / qcomp=0.60 / qpmin=0 / qpmax=69 / qpstep=4 / vbv_maxrate=4050 / vbv_bufsize=8000 / nal_hrd=none / filler=0 / ip_ratio=1.40 / aq=1:1.00
Language : Danish
Default : Yes
Forced : No
Statistics Tags Issue : mkvmerge v42.0.0 ('Overtime') 64-bit 2020-05-09 09:49:35 / mkvmerge v4.1.1 ('Bouncin' Back') сборка от Jul 3 2010 22:54:08 2020-12-28 22:14:44
FromStats_BitRate : 3913225
FromStats_Duration : 01:32:45.520000000
FromStats_FrameCount : 139138
FromStats_StreamSize : 2722391877
Audio #1
ID : 2
Format : AC-3
Format/Info : Audio Coding 3
Mode extension : CM (complete main)
Format settings, Endianness : Big
Muxing mode : Header stripping
Codec ID : A_AC3
Duration : 1 h 32 min
Bit rate mode : Constant
Bit rate : 224 kb/s
Channel(s) : 2 channels
Channel positions : Front: L R
Sampling rate : 48.0 kHz
Frame rate : 31.250 FPS (1536 spf)
Bit depth : 16 bits
Compression mode : Lossy
Delay relative to video : 40 ms
Stream size : 149 MiB (5%)
Title : Александр Дасевич
Language : Russian
Default : Yes
Forced : No
Statistics Tags Issue : mkvmerge v42.0.0 ('Overtime') 64-bit 2020-05-09 09:49:35 / mkvmerge v4.1.1 ('Bouncin' Back') сборка от Jul 3 2010 22:54:08 2020-12-28 22:14:44
FromStats_BitRate : 224000
FromStats_Duration : 01:32:54.912000000
FromStats_FrameCount : 174216
FromStats_StreamSize : 156097536
Audio #2
ID : 3
Format : AC-3
Format/Info : Audio Coding 3
Mode extension : CM (complete main)
Format settings, Endianness : Big
Muxing mode : Header stripping
Codec ID : A_AC3
Duration : 1 h 32 min
Bit rate mode : Constant
Bit rate : 192 kb/s
Channel(s) : 2 channels
Channel positions : Front: L R
Sampling rate : 48.0 kHz
Frame rate : 31.250 FPS (1536 spf)
Bit depth : 16 bits
Compression mode : Lossy
Delay relative to video : 40 ms
Stream size : 128 MiB (4%)
Title : Василий Кошкин
Language : Russian
Default : No
Forced : No
Statistics Tags Issue : mkvmerge v42.0.0 ('Overtime') 64-bit 2020-05-09 09:49:35 / mkvmerge v4.1.1 ('Bouncin' Back') сборка от Jul 3 2010 22:54:08 2020-12-28 22:14:44
FromStats_BitRate : 192000
FromStats_Duration : 01:32:54.880000000
FromStats_FrameCount : 174215
FromStats_StreamSize : 133797120
Audio #3
ID : 4
Format : AC-3
Format/Info : Audio Coding 3
Format profile : Dolby Digital
Mode extension : CM (complete main)
Format settings, Endianness : Big
Muxing mode : Header stripping
Codec ID : A_AC3
Duration : 1 h 32 min
Bit rate mode : Constant
Bit rate : 320 kb/s
Channel(s) : 2 channels
Channel positions : Front: L R
Sampling rate : 48.0 kHz
Frame rate : 31.250 FPS (1536 spf)
Bit depth : 16 bits
Compression mode : Lossy
Delay relative to video : 40 ms
Stream size : 213 MiB (7%)
Language : Danish
Default : No
Forced : No
Statistics Tags Issue : mkvmerge v42.0.0 ('Overtime') 64-bit 2020-05-09 09:49:35 / mkvmerge v4.1.1 ('Bouncin' Back') сборка от Jul 3 2010 22:54:08 2020-12-28 22:14:44
FromStats_BitRate : 320000
FromStats_Duration : 01:32:54.880000000
FromStats_FrameCount : 174215
FromStats_StreamSize : 222995200
Text #1
ID : 5
Format : UTF-8
Codec ID : S_TEXT/UTF8
Codec ID/Info : UTF-8 Plain Text
Language : Russian
Default : No
Forced : No
Text #2
ID : 6
Format : UTF-8
Codec ID : S_TEXT/UTF8
Codec ID/Info : UTF-8 Plain Text
Language : Russian
Default : Yes
Forced : No
Text #3
ID : 7
Format : UTF-8
Codec ID : S_TEXT/UTF8
Codec ID/Info : UTF-8 Plain Text
Language : English
Default : No
Forced : No

Скриншот c названием фильма

Профиль [ЛС]
Показать сообщения:    

Текущее время: 26-Янв 16:12

Часовой пояс: UTC ± 0



Вы не можете начинать темы
Вы не можете отвечать на сообщения
Вы не можете редактировать свои сообщения
Вы не можете удалять свои сообщения
Вы не можете голосовать в опросах
Вы не можете прикреплять файлы к сообщениям
Вы не можете скачивать файлы