MAGNAT ®

Пол:
Мужской
Стаж:
1 год 9 месяцев
Сообщений:
9230

Пусть идёт снег / Let It Snow
--Страна: США
Студия: Dylan Clark Productions, Netflix
Жанр: мелодрама, комедия
Год выпуска: 2019
Продолжительность: 01:32:35--Перевод: Профессиональный (дублированный) Невафильм
Субтитры: русские (forced, full), английские (SDH v1, SDH v2)
Оригинальная аудиодорожка: английский--Режиссер: Люк Снеллин / Luke Snellin
В ролях: Изабела Мерсед, Шамеик Мур, Одейя Раш, Лив Хьюсон, Митчелл Хоуп, Кирнан Шипка, Мэттью Нозка, Джейкоб Баталон, Майлз Роббинс, Джоан Кьюсак--Описание: Неожиданный снежный буран в канун Рождества застает жителей Грейстауна врасплох: поезда останавливаются, машины вязнут в снегу, а люди стараются переждать непогоду дома. И лишь храбрая девушка выбирается из застрявшего в снегу экспресса, чтобы посидеть в тишине маленькой закусочной, где выпекают вафли. Она и не догадывается, что ее поступок стал первым звеном в цепи событий, которые изменят многие жизни: одна девушка влюбится в очаровательного незнакомца, трое друзей выиграют гонку в «Вафельную», а судьба карликовой свиньи окажется в руках влюбленного бариста.--Тип релиза: WEB-DL 1080p
Контейнер: MKV
Видео: MPEG-H HEVC Video / 3324 kbps / 1920x1080 / 24 fps / 16:9 / Main 10 @ Level 5.1 @ High / 4:2:0 / 10 bits / 1000nits / HDR10 / BT.2020
Аудио 1: Russian E-AC3 / 5.1 / 48 kHz / 640 kbps |Dub, Невафильм|
Аудио 2: English E-AC3 / 5.1 / 48 kHz / 640 kbps |original|
Формат субтитров: softsub [SRT]

MediaInfo

Код:
Общее
Уникальный идентификатор : 237892517295204105165517827911539647575 (0xB2F86EA89EECA97E63ACBFF8092E6457)
Полное имя : G:\HD\Пусть идёт снег.2019.WEB-DL.1080p.HDR.mkv
Формат : Matroska
Версия формата : Version 4
Размер файла : 2,99 Гбайт
Продолжительность : 1 ч. 33 м.
Общий поток : 4 576 Кбит/сек
Дата кодирования : UTC 2020-12-27 06:40:53
Программа кодирования : mkvmerge v51.0.0 ('I Wish') 64-bit
Библиотека кодирования : libebml v1.4.0 + libmatroska v1.6.2
Attachments : poster.jpg
Видео
Идентификатор : 1
Формат : HEVC
Формат/Информация : High Efficiency Video Coding
Профиль формата : Main 10@L4@Main
HDR format : SMPTE ST 2086, HDR10 compatible
Идентификатор кодека : V_MPEGH/ISO/HEVC
Продолжительность : 1 ч. 32 м.
Битрейт : 3 324 Кбит/сек
Ширина : 1 920 пикселей
Высота : 1 080 пикселей
Соотношение сторон : 16:9
Режим частоты кадров : Постоянный
Частота кадров : 24,000 кадра/сек
Цветовое пространство : YUV
Субдискретизация насыщенности : 4:2:0 (Type 2)
Битовая глубина : 10 бит
Бит/(Пиксели*Кадры) : 0.067
Размер потока : 2,15 Гбайт (72%)
Default : Да
Forced : Нет
Цветовой диапазон : Limited
Основные цвета : BT.2020
Характеристики трансфера : PQ
Коэффициенты матрицы : BT.2020 non-constant
Mastering display color primaries : Display P3
Mastering display luminance : min: 0.0001 cd/m2, max: 1000 cd/m2
Maximum Content Light Level : 1071 cd/m2
Maximum Frame-Average Light Level : 482 cd/m2
Аудио #1
Идентификатор : 2
Формат : E-AC-3
Формат/Информация : Enhanced AC-3
Коммерческое название : Dolby Digital Plus
Идентификатор кодека : A_EAC3
Продолжительность : 1 ч. 33 м.
Вид битрейта : Постоянный
Битрейт : 640 Кбит/сек
Каналы : 6 каналов
Channel layout : L R C LFE Ls Rs
Частота : 48,0 КГц
Частота кадров : 31,250 кадров/сек (1536 SPF)
Метод сжатия : С потерями
Размер потока : 428 Мбайт (14%)
Заголовок : Dub, Невафильм
Язык : Russian
Service kind : Complete Main
Default : Да
Forced : Нет
Аудио #2
Идентификатор : 3
Формат : E-AC-3
Формат/Информация : Enhanced AC-3
Коммерческое название : Dolby Digital Plus
Идентификатор кодека : A_EAC3
Продолжительность : 1 ч. 33 м.
Вид битрейта : Постоянный
Битрейт : 640 Кбит/сек
Каналы : 6 каналов
Channel layout : L R C LFE Ls Rs
Частота : 48,0 КГц
Частота кадров : 31,250 кадров/сек (1536 SPF)
Метод сжатия : С потерями
Размер потока : 428 Мбайт (14%)
Язык : English
Service kind : Complete Main
Default : Нет
Forced : Нет
Текст #1
Идентификатор : 4
Формат : UTF-8
Идентификатор кодека : S_TEXT/UTF8
Идентификатор кодека/Информация : UTF-8 Plain Text
Продолжительность : 1 ч. 32 м.
Битрейт : 0 бит/сек
Count of elements : 11
Размер потока : 568 байт (0%)
Заголовок : forced
Язык : Russian
Default : Да
Forced : Нет
Текст #2
Идентификатор : 5
Формат : UTF-8
Идентификатор кодека : S_TEXT/UTF8
Идентификатор кодека/Информация : UTF-8 Plain Text
Продолжительность : 1 ч. 32 м.
Битрейт : 81 бит/сек
Count of elements : 1313
Размер потока : 55,5 Кбайт (0%)
Заголовок : full
Язык : Russian
Default : Нет
Forced : Нет
Текст #3
Идентификатор : 6
Формат : UTF-8
Идентификатор кодека : S_TEXT/UTF8
Идентификатор кодека/Информация : UTF-8 Plain Text
Продолжительность : 1 ч. 32 м.
Битрейт : 88 бит/сек
Count of elements : 1788
Размер потока : 59,9 Кбайт (0%)
Заголовок : SDH v1
Язык : English
Default : Нет
Forced : Нет
Текст #4
Идентификатор : 7
Формат : UTF-8
Идентификатор кодека : S_TEXT/UTF8
Идентификатор кодека/Информация : UTF-8 Plain Text
Продолжительность : 1 ч. 32 м.
Битрейт : 73 бит/сек
Count of elements : 1643
Размер потока : 49,6 Кбайт (0%)
Заголовок : SDH v2
Язык : English
Default : Нет
Forced : Нет

Скриншоты


Дополнительно

Цитата:Русская дорожка и субтитры взяты с этой раздачи thx: Wilmots
Профиль [ЛС]
Показать сообщения:    

Текущее время: 26-Янв 14:27

Часовой пояс: UTC ± 0



Вы не можете начинать темы
Вы не можете отвечать на сообщения
Вы не можете редактировать свои сообщения
Вы не можете удалять свои сообщения
Вы не можете голосовать в опросах
Вы не можете прикреплять файлы к сообщениям
Вы не можете скачивать файлы