MAGNAT ®

Пол:
Мужской
Стаж:
1 год 9 месяцев
Сообщений:
9230

Темный кристалл / The Dark Crystal
--Страна: США, Великобритания
Студия: Henson Associates (HA), Incorporated Television Company (ITC), Jim Henson Productions
Жанр: фэнтези, приключения, семейный
Год выпуска: 1982
Продолжительность: 01:33:07--Перевод 1: Профессиональный (двухголосый закадровый) Tycoon Studio
Перевод 2: Авторский (одноголосый закадровый) А. Гаврилов
Перевод 3: Одноголосый закадровый
Субтитры: русские, английские (full, SDH, Commentary)
Оригинальная аудиодорожка: английский--Режиссер: Джим Хенсон / Jim Henson, Фрэнк Оз / Frank Oz
В ролях: Джим Хенсон, Кэтрин Маллен, Фрэнк Оз, Дэйв Гольц, Стив Уитмир, Луиз Голд, Брайан Мюэль, Боб Пэйн, Майк Куинн, Тимоти М. Роуз--Описание: Веками в волшебной стране, которую населял народ гелфлингов, царил мир и покой. Но однажды произошла страшная беда: был поврежден Темный кристалл, магический камень, управляющий законами Вселенной. Из-за этого нарушилось равновесие хаоса и порядка, а бедных человекообразных гелфлингов поработили воинственные, злобные ящеры скексисы.
Если Темный кристалл не починить до дня Великого слияния трех солнц, кошмарные скексисы будут вечно править миром. И тогда храбрые гелфлинги Джен и Кира отправляются на полные опасностей и приключений поиски отколовшейся части кристалла,без которой нельзя исправить святыню.-Тип релиза: BDRemux 1080p
Контейнер: MKV
Видео: MPEG-4 AVC / 25969 kbps / 1920x1080 / 23,976 fps / 16:9 / High Profile 4.1
Аудио 1: Russian AC3 / 5.1 / 48 kHz / 448 kbps |DVO, Tycoon Studio|
Аудио 2: Russian AC3 / 5.1 / 48 kHz / 448 kbps |А. Гаврилов|
Аудио 3: Russian DTS / 5.1 / 48 kHz / 1510 kbps / 24-bit |VO|
Аудио 4: English Dolby Atmos/TrueHD Audio / 7.1-Atmos / 48 kHz / 5332 kbps / 24-bit |original|
Аудио 5: English AC3 Core: 5.1 / 48 kHz / 640 kbps |original|
Аудио 6: English AC3 / 2.0 / 48 kHz / 192 kbps |Commentary by conceptual designer Brian Froud|
Формат субтитров: softsub [SRT]

MediaInfo

Код:
Общее
Уникальный идентификатор : 250265407746156887345200440770318897788 (0xBC475D419A2B4A9097E8D1346F81127C)
Полное имя : G:\HD\Темный кристалл.1982.Blu-Ray.Remux.1080p.mkv
Формат : Matroska
Версия формата : Version 4
Размер файла : 22,1 Гбайт
Продолжительность : 1 ч. 33 м.
Режим общего битрейта : Переменный
Общий поток : 34,0 Мбит/сек
Дата кодирования : UTC 2020-12-26 00:27:22
Программа кодирования : mkvmerge v51.0.0 ('I Wish') 64-bit
Библиотека кодирования : libebml v1.4.0 + libmatroska v1.6.2
Attachments : poster.jpg
Видео
Идентификатор : 1
Формат : AVC
Формат/Информация : Advanced Video Codec
Профиль формата : High@L4.1
Настройки формата : CABAC / 2 Ref Frames
Параметр CABAC формата : Да
Параметр RefFrames формата : 2 кадра
Параметр GOP формата : M=1, N=10
Идентификатор кодека : V_MPEG4/ISO/AVC
Продолжительность : 1 ч. 33 м.
Вид битрейта : Переменный
Битрейт : 26,0 Мбит/сек
Ширина : 1 920 пикселей
Высота : 1 080 пикселей
Соотношение сторон : 16:9
Режим частоты кадров : Постоянный
Частота кадров : 23,976 (24000/1001) кадра/сек
Цветовое пространство : YUV
Субдискретизация насыщенности : 4:2:0
Битовая глубина : 8 бит
Тип развёртки : Прогрессивная
Бит/(Пиксели*Кадры) : 0.522
Размер потока : 16,9 Гбайт (76%)
Default : Да
Forced : Нет
Аудио #1
Идентификатор : 2
Формат : AC-3
Формат/Информация : Audio Coding 3
Коммерческое название : Dolby Digital
Идентификатор кодека : A_AC3
Продолжительность : 1 ч. 33 м.
Вид битрейта : Постоянный
Битрейт : 448 Кбит/сек
Каналы : 6 каналов
Channel layout : L R C LFE Ls Rs
Частота : 48,0 КГц
Частота кадров : 31,250 кадров/сек (1536 SPF)
Метод сжатия : С потерями
Размер потока : 298 Мбайт (1%)
Заголовок : DVO, Tycoon Studio
Язык : Russian
Service kind : Complete Main
Default : Да
Forced : Нет
Аудио #2
Идентификатор : 3
Формат : AC-3
Формат/Информация : Audio Coding 3
Коммерческое название : Dolby Digital
Идентификатор кодека : A_AC3
Продолжительность : 1 ч. 33 м.
Вид битрейта : Постоянный
Битрейт : 448 Кбит/сек
Каналы : 6 каналов
Channel layout : L R C LFE Ls Rs
Частота : 48,0 КГц
Частота кадров : 31,250 кадров/сек (1536 SPF)
Метод сжатия : С потерями
Размер потока : 298 Мбайт (1%)
Заголовок : А. Гаврилов
Язык : Russian
Service kind : Complete Main
Default : Нет
Forced : Нет
Аудио #3
Идентификатор : 4
Формат : DTS
Формат/Информация : Digital Theater Systems
Идентификатор кодека : A_DTS
Продолжительность : 1 ч. 33 м.
Вид битрейта : Постоянный
Битрейт : 1 510 Кбит/сек
Каналы : 6 каналов
Channel layout : C L R Ls Rs LFE
Частота : 48,0 КГц
Частота кадров : 93,750 кадра/сек (512 SPF)
Битовая глубина : 24 бит
Метод сжатия : С потерями
Размер потока : 1 006 Мбайт (4%)
Заголовок : VO
Язык : Russian
Default : Нет
Forced : Нет
Аудио #4
Идентификатор : 5
Формат : MLP FBA 16-ch
Формат/Информация : Meridian Lossless Packing FBA with 16-channel presentation
Коммерческое название : Dolby TrueHD with Dolby Atmos
Идентификатор кодека : A_TRUEHD
Продолжительность : 1 ч. 33 м.
Вид битрейта : Переменный
Битрейт : 4 692 Кбит/сек
Максимальный битрейт : 7 020 Кбит/сек
Каналы : 8 каналов
Channel layout : L R C LFE Ls Rs Lb Rb
Частота : 48,0 КГц
Частота кадров : 1 200,000 кадров/сек (40 SPF)
Метод сжатия : Без потерь
Размер потока : 3,05 Гбайт (14%)
Язык : English
Default : Нет
Forced : Нет
Number of dynamic objects : 11
Bed channel count : 1 канал
Bed channel configuration : LFE
Аудио #5
Идентификатор : 6
Формат : AC-3
Формат/Информация : Audio Coding 3
Коммерческое название : Dolby Digital
Идентификатор кодека : A_AC3
Продолжительность : 1 ч. 33 м.
Вид битрейта : Постоянный
Битрейт : 640 Кбит/сек
Каналы : 6 каналов
Channel layout : L R C LFE Ls Rs
Частота : 48,0 КГц
Частота кадров : 31,250 кадров/сек (1536 SPF)
Метод сжатия : С потерями
Размер потока : 426 Мбайт (2%)
Язык : English
Service kind : Complete Main
Default : Нет
Forced : Нет
Аудио #6
Идентификатор : 7
Формат : AC-3
Формат/Информация : Audio Coding 3
Коммерческое название : Dolby Digital
Идентификатор кодека : A_AC3
Продолжительность : 1 ч. 33 м.
Вид битрейта : Постоянный
Битрейт : 192 Кбит/сек
Каналы : 2 канала
Channel layout : L R
Частота : 48,0 КГц
Частота кадров : 31,250 кадров/сек (1536 SPF)
Метод сжатия : С потерями
Размер потока : 128 Мбайт (1%)
Заголовок : Commentary by conceptual designer Brian Froud
Язык : English
Service kind : Complete Main
Default : Нет
Forced : Нет
Текст #1
Идентификатор : 8
Формат : UTF-8
Идентификатор кодека : S_TEXT/UTF8
Идентификатор кодека/Информация : UTF-8 Plain Text
Продолжительность : 1 ч. 26 м.
Битрейт : 47 бит/сек
Count of elements : 678
Размер потока : 30,5 Кбайт (0%)
Язык : Russian
Default : Нет
Forced : Нет
Текст #2
Идентификатор : 9
Формат : UTF-8
Идентификатор кодека : S_TEXT/UTF8
Идентификатор кодека/Информация : UTF-8 Plain Text
Продолжительность : 1 ч. 26 м.
Битрейт : 29 бит/сек
Count of elements : 697
Размер потока : 18,7 Кбайт (0%)
Заголовок : full
Язык : English
Default : Нет
Forced : Нет
Текст #3
Идентификатор : 10
Формат : UTF-8
Идентификатор кодека : S_TEXT/UTF8
Идентификатор кодека/Информация : UTF-8 Plain Text
Продолжительность : 1 ч. 27 м.
Битрейт : 36 бит/сек
Count of elements : 969
Размер потока : 23,2 Кбайт (0%)
Заголовок : SDH
Язык : English
Default : Нет
Forced : Нет
Текст #4
Идентификатор : 11
Формат : UTF-8
Идентификатор кодека : S_TEXT/UTF8
Идентификатор кодека/Информация : UTF-8 Plain Text
Продолжительность : 1 ч. 29 м.
Битрейт : 82 бит/сек
Count of elements : 1196
Размер потока : 53,8 Кбайт (0%)
Заголовок : Commentary by conceptual designer Brian Froud
Язык : English
Default : Нет
Forced : Нет
Меню
00:00:00.000 : :In the Age of Wonder
00:05:24.449 : :The Chosen One
00:09:46.669 : :The Emperor Dies
00:14:24.196 : :Trial by Stone
00:19:51.190 : :The Crystal Calls
00:24:40.937 : :The Shard
00:29:04.993 : :Garthim!
00:32:23.524 : :Kira
00:38:03.948 : :"Food, More Food!"
00:43:11.338 : :Crystal Bat
00:50:31.778 : :Ruins
00:54:59.379 : :Landstriders
01:00:31.544 : :Rescue & Escape
01:08:17.093 : :"Call the Animals!"
01:18:02.010 : :"We Will Live Forever!"
01:21:40.645 : :Prophecy Fulfilled

Скриншоты


Профиль [ЛС]
Показать сообщения:    

Текущее время: 26-Янв 15:57

Часовой пояс: UTC ± 0



Вы не можете начинать темы
Вы не можете отвечать на сообщения
Вы не можете редактировать свои сообщения
Вы не можете удалять свои сообщения
Вы не можете голосовать в опросах
Вы не можете прикреплять файлы к сообщениям
Вы не можете скачивать файлы