MAGNAT ®

Пол:
Мужской
Стаж:
1 год 9 месяцев
Сообщений:
9230

Атомные самураи / フクシマフィフティ / Fukushima 50
Страна: Япония
Жанр: Драма, биография, история
Год выпуска: 2020
Продолжительность: 01:57:06
Перевод: Любительский (многоголосый закадровый) [@MUZOBOZ@]
Оригинальная аудиодорожка: японский
Субтитры: нет
Режиссер: Сэцуро Вакамацу / Setsuro Wakamatsu
В ролях: Коити Сато, Кэн Ватанабэ, Хидэтака Ёсиока, Наруми Ясуда, Наото Огата, Сёхэи Хино, Мицуру Хирата, Масато Хагивара, Рихо Ёсиока, Такуми Саито
Описание: История о ликвидаторах аварии на АЭС Фукусима-1 после землетрясения у восточного побережья острова Хонсю в Японии 11 марта 2011 года, также известного как Великое восточно-японское землетрясение. Как руководству станции, так и обычным сотрудникам предстоит принять ряд важных решений и бороться с мирным атомом ценой собственных жизней.
Тип релиза: BDRip 720p
Контейнер: MKV
Видео: 7 912 Кбит/сек, 1280 x 536 (2.388), 24.000 fps
Аудио: AC-3, 256 Кбит/сек, 2 канала, 48,0 КГц |@MUZOBOZ@|
Аудио 2: DTS, 1 536 Кбит/сек, 6 каналов, 48,0 КГц |Оригинал|

MediaInfo

Общее
Уникальный идентификатор : 242230069458353358148181921862887650563 (0xB63BD07DD5AB2BE0FC5F3C6BD8DBB503)
Полное имя : F:\Fukushima.50.2020.x264.BDRip.1080p.mkv
Формат : Matroska
Версия формата : Version 4
Размер файла : 7,94 Гбайт
Продолжительность : 1 ч. 57 м.
Общий поток : 9 707 Кбит/сек
Название фильма : Fukushima 50
Дата кодирования : UTC 2020-12-26 14:15:12
Программа кодирования : mkvmerge v51.0.0 ('I Wish') 64-bit
Библиотека кодирования : libebml v1.4.0 + libmatroska v1.6.2
Обложка : Yes
Attachments : cover.jpg
Видео
Идентификатор : 1
Формат : AVC
Формат/Информация : Advanced Video Codec
Профиль формата : High@L4.1
Настройки формата : CABAC / 5 Ref Frames
Параметр CABAC формата : Да
Параметр RefFrames формата : 5 кадров
Идентификатор кодека : V_MPEG4/ISO/AVC
Продолжительность : 1 ч. 57 м.
Битрейт : 7 912 Кбит/сек
Ширина : 1 280 пикселей
Высота : 536 пикселей
Соотношение сторон : 2,40:1
Режим частоты кадров : Постоянный
Частота кадров : 24,000 кадра/сек
Цветовое пространство : YUV
Субдискретизация насыщенности : 4:2:0
Битовая глубина : 8 бит
Тип развёртки : Прогрессивная
Бит/(Пиксели*Кадры) : 0.481
Размер потока : 6,47 Гбайт (82%)
Библиотека кодирования : x264 core 157 r2935 545de2f
Настройки программы : cabac=1 / ref=5 / deblock=1:0:0 / analyse=0x3:0x133 / me=umh / subme=10 / psy=1 / psy_rd=1.00:0.00 / mixed_ref=1 / me_range=24 / chroma_me=1 / trellis=2 / 8x8dct=1 / cqm=0 / deadzone=21,11 / fast_pskip=1 / chroma_qp_offset=-2 / threads=6 / lookahead_threads=1 / sliced_threads=0 / nr=0 / decimate=1 / interlaced=0 / bluray_compat=0 / constrained_intra=0 / bframes=5 / b_pyramid=2 / b_adapt=2 / b_bias=0 / direct=3 / weightb=1 / open_gop=0 / weightp=2 / keyint=240 / keyint_min=24 / scenecut=40 / intra_refresh=0 / rc_lookahead=60 / rc=2pass / mbtree=1 / bitrate=7912 / ratetol=1.0 / qcomp=0.60 / qpmin=0 / qpmax=69 / qpstep=4 / cplxblur=20.0 / qblur=0.5 / vbv_maxrate=62500 / vbv_bufsize=78125 / nal_hrd=none / filler=0 / ip_ratio=1.40 / aq=1:1.00
Default : Да
Forced : Нет
Цветовой диапазон : Limited
Основные цвета : BT.709
Характеристики трансфера : BT.709
Коэффициенты матрицы : BT.709
Аудио #1
Идентификатор : 2
Формат : AC-3
Формат/Информация : Audio Coding 3
Коммерческое название : Dolby Digital
Идентификатор кодека : A_AC3
Продолжительность : 1 ч. 57 м.
Вид битрейта : Постоянный
Битрейт : 256 Кбит/сек
Каналы : 2 канала
Channel layout : L R
Частота : 48,0 КГц
Частота кадров : 31,250 кадров/сек (1536 SPF)
Метод сжатия : С потерями
Размер потока : 214 Мбайт (3%)
Заголовок : Любительский (многоголосый) [@MUZOBOZ@]
Язык : Russian
Service kind : Complete Main
Default : Да
Forced : Да
Аудио #2
Идентификатор : 3
Формат : DTS
Формат/Информация : Digital Theater Systems
Идентификатор кодека : A_DTS
Продолжительность : 1 ч. 57 м.
Вид битрейта : Постоянный
Битрейт : 1 536 Кбит/сек
Каналы : 6 каналов
Channel layout : C L R Ls Rs LFE
Частота : 48,0 КГц
Частота кадров : 93,750 кадра/сек (512 SPF)
Битовая глубина : 24 бит
Метод сжатия : С потерями
Размер потока : 1,26 Гбайт (16%)
Язык : Japanese
Default : Нет
Forced : Нет
Меню
00:00:00.000 : en:Глава 01
00:05:16.791 : en:Глава 02
00:11:51.250 : en:Глава 03
00:17:44.708 : en:Глава 04
00:24:26.708 : en:Глава 05
00:29:24.666 : en:Глава 06
00:35:41.208 : en:Глава 07
00:41:54.958 : en:Глава 08
00:48:39.166 : en:Глава 09
00:54:16.791 : en:Глава 10
00:59:15.500 : en:Глава 11
01:06:15.125 : en:Глава 12
01:11:51.333 : en:Глава 13
01:18:07.750 : en:Глава 14
01:23:33.458 : en:Глава 15
01:29:18.708 : en:Глава 16
01:35:21.791 : en:Глава 17
01:40:27.208 : en:Глава 18
01:45:02.541 : en:Глава 19
01:52:25.791 : en:Глава 20

Скриншоты


Профиль [ЛС]
Показать сообщения:    

Текущее время: 26-Янв 15:20

Часовой пояс: UTC ± 0



Вы не можете начинать темы
Вы не можете отвечать на сообщения
Вы не можете редактировать свои сообщения
Вы не можете удалять свои сообщения
Вы не можете голосовать в опросах
Вы не можете прикреплять файлы к сообщениям
Вы не можете скачивать файлы