MAGNAT ®

Пол:
Мужской
Стаж:
1 год 9 месяцев
Сообщений:
9230

Малышка с характером / The Doorman
«Она открывает любые двери»
Страна: США
Жанр: Боевик, триллер
Год выпуска: 2020
Продолжительность: 01:36:55-Перевод: Профессиональный (дублированный) | (iTunes)
Cубтитры: Английские (Forced, Full, SDH)
Оригинальная аудиодорожка: Английский-Режиссёр: Рюхэй Китамура / Ryuhei Kitamura
В ролях: Руби Роуз, Жан Рено, Аксель Хенни, Руперт Эванс, Джулиан Федер, Кайла Лорд Кэссиди, Луис Мэндилор, Дэн Сауфуорф, Хидэаки Ито, Дэвид Сакурай
Описание: В прошлом она – солдат спецподразделения, в настоящем - швейцар в роскошном отеле, где готовится дерзкое ограбление. Лишь она стоит между безжалостными преступниками и бесценными произведениями искусства, спрятанными в стенах отеля.--Тип релиза: BDRemux 1080p
Контейнер: MKV-Видео: MPEG-4 AVC Video 33534 kbps 1080p / 23,976 fps / 16:9 / High Profile 4.1
Аудио 1: Русский | AC-3, 6 ch, 384 Kbps, 48.0 kHz
Аудио 2: Английский | DTS-HD MA, 6 ch, 3386 Kbps, 48.0 kHz, 24-bit (DTS Core: 5.1 / 48 kHz / 1509 kbps / 24-bit)
Формат субтитров: softsub (SRT, ASS)-

MediaInfo

Код:
General
Unique ID : 1585290437677172310152034374006742612 (0x13150DA653042BF8223259CBBEA1E54)
Complete name : /Volumes/Promise Pegasus/The.Doorman.BDRemux.1080p.pk.mkv
Format : Matroska
Format version : Version 4
File size : 25.3 GiB
Duration : 1 h 36 min
Overall bit rate mode : Variable
Overall bit rate : 37.3 Mb/s
Movie name : The Doorman BDRemux 1080p pk
Encoded date : UTC 2020-12-26 11:03:21
Writing application : mkvmerge v51.0.0 ('I Wish') 64-bit
Writing library : libebml v1.4.0 + libmatroska v1.6.2
Video
ID : 1
Format : AVC
Format/Info : Advanced Video Codec
Format profile : High@L4.1
Format settings : CABAC / 3 Ref Frames
Format settings, CABAC : Yes
Format settings, Reference frames : 3 frames
Codec ID : V_MPEG4/ISO/AVC
Duration : 1 h 36 min
Bit rate mode : Variable
Bit rate : 33.5 Mb/s
Maximum bit rate : 35.0 Mb/s
Width : 1 920 pixels
Height : 1 080 pixels
Display aspect ratio : 16:9
Frame rate mode : Constant
Frame rate : 23.976 (24000/1001) FPS
Color space : YUV
Chroma subsampling : 4:2:0
Bit depth : 8 bits
Scan type : Progressive
Bits/(Pixel*Frame) : 0.674
Stream size : 22.7 GiB (90%)
Language : German
Default : Yes
Forced : No
Audio #1
ID : 2
Format : AC-3
Format/Info : Audio Coding 3
Commercial name : Dolby Digital
Codec ID : A_AC3
Duration : 1 h 36 min
Bit rate mode : Constant
Bit rate : 384 kb/s
Channel(s) : 6 channels
Channel layout : L R C LFE Ls Rs
Sampling rate : 48.0 kHz
Frame rate : 31.250 FPS (1536 SPF)
Compression mode : Lossy
Stream size : 266 MiB (1%)
Title : Russian Dub iTunes
Language : Russian
Service kind : Complete Main
Default : Yes
Forced : No
Audio #2
ID : 3
Format : DTS XLL
Format/Info : Digital Theater Systems
Commercial name : DTS-HD Master Audio
Codec ID : A_DTS
Duration : 1 h 36 min
Bit rate mode : Variable
Bit rate : 3 386 kb/s
Channel(s) : 6 channels
Channel layout : C L R Ls Rs LFE
Sampling rate : 48.0 kHz
Frame rate : 93.750 FPS (512 SPF)
Bit depth : 24 bits
Compression mode : Lossless
Stream size : 2.29 GiB (9%)
Title : English Original
Language : English
Default : No
Forced : No
Text #1
ID : 4
Format : UTF-8
Codec ID : S_TEXT/UTF8
Codec ID/Info : UTF-8 Plain Text
Duration : 1 h 0 min
Bit rate : 0 b/s
Count of elements : 14
Stream size : 339 Bytes (0%)
Title : English forced
Language : English
Default : Yes
Forced : No
Text #2
ID : 5
Format : UTF-8
Codec ID : S_TEXT/UTF8
Codec ID/Info : UTF-8 Plain Text
Duration : 1 h 30 min
Bit rate : 48 b/s
Count of elements : 1078
Stream size : 32.6 KiB (0%)
Title : English full
Language : English
Default : No
Forced : No
Text #3
ID : 6
Format : ASS
Codec ID : S_TEXT/ASS
Codec ID/Info : Advanced Sub Station Alpha
Duration : 1 h 30 min
Bit rate : 101 b/s
Count of elements : 1233
Compression mode : Lossless
Stream size : 67.4 KiB (0%)
Title : English SDH
Language : English
Default : No
Forced : No
Menu
00:00:00.000 : en:Chapter 01
00:06:21.089 : en:Chapter 02
00:15:03.777 : en:Chapter 03
00:24:15.078 : en:Chapter 04
00:33:01.521 : en:Chapter 05
00:42:19.119 : en:Chapter 06
00:51:43.850 : en:Chapter 07
00:59:06.834 : en:Chapter 08
01:07:56.238 : en:Chapter 09
01:16:41.388 : en:Chapter 10
01:24:16.843 : en:Chapter 11
01:29:32.533 : en:Chapter 12

Скриншоты

Профиль [ЛС]
Показать сообщения:    

Текущее время: 18-Янв 10:02

Часовой пояс: UTC ± 0



Вы не можете начинать темы
Вы не можете отвечать на сообщения
Вы не можете редактировать свои сообщения
Вы не можете удалять свои сообщения
Вы не можете голосовать в опросах
Вы не можете прикреплять файлы к сообщениям
Вы не можете скачивать файлы