MAGNAT ®

Пол:
Мужской
Стаж:
1 год 9 месяцев
Сообщений:
9230

Спасите меня / Помоги мне / Спасите! Умоляю! / Save Me
Страна: США
Жанр: триллер, детектив, эротика
Год выпуска: 1994
Продолжительность: 01:33:13
Перевод 1: Профессиональный (двухголосый закадровый) НТВ+
Перевод 2: Авторский (одноголосый закадровый) Сергей Визгунов
Перевод 3: Авторский (одноголосый закадровый) Андрей Гаврилов
Субтитры: английские
Оригинальная аудиодорожка: английский
Режиссер: Алан Робертс / Alan Roberts
В ролях: Гарри Хэмлин, Лизетт Энтони, Майкл Айронсайд, Стив Рейлсбэк, Оливия Хасси, Билл Нанн, Джозеф Кампанелла, Нил Ронко, Сигал Дайэмант, Райлли Мёрфи...
Описание: Джим Стивенс, способный сотрудник процветающей компании внезапно становится свидетелем следующей сцены: молодая симпатичная девушка приклеивает к двери записку. В записке всего 2 слова «Спасите меня» и телефон. И с этого момента жизнь Джима превращается в какой то кошмар из цепи необъяснимых покушений, убийств и интриг, в которой сам Джим не понимает своей роли…
Тип релиза: WEBRip 1080p
Контейнер: MKV
Видео: 1920x1080 (16:9), 23.976 fps, AVC, ~6086 Kbps, 0.122 bits/pixel
Аудио 1: Russian, 48.0 KHz, AC3, 2 ch, 192 Kbps - НТВ+
Аудио 2: Russian, 48.0 KHz, AC3, 2 ch, 192 Kbps - Сергей Визгунов
Аудио 3: Russian, 48.0 KHz, AC3, 2 ch, 192 Kbps - Андрей Гаврилов
Аудио 4: English, 48.0 KHz, AC3+, 2 ch, 128 Kbps

MediaInfo

General
Unique ID : 307966589824048417442303990450493635623 (0xE7B0352D390B63AD7DEF5BAD1610BC27)
Complete name : E:\Save Me. WEBRip 1080p.mkv
Format : Matroska
Format version : Version 4
File size : 4.51 GiB
Duration : 1 h 33 min
Overall bit rate mode : Variable
Overall bit rate : 6 928 kb/s
Encoded date : UTC 2020-12-26 10:29:38
Writing application : mkvmerge v44.0.0 ('Domino') 64-bit
Writing library : libebml v1.3.10 + libmatroska v1.5.2
Video
ID : 1
Format : AVC
Format/Info : Advanced Video Codec
Format profile : High@L4
Format settings : CABAC / 4 Ref Frames
Format settings, CABAC : Yes
Format settings, Reference : 4 frames
Codec ID : V_MPEG4/ISO/AVC
Duration : 1 h 33 min
Bit rate mode : Variable
Bit rate : 6 221 kb/s
Maximum bit rate : 20.0 Mb/s
Width : 1 920 pixels
Height : 1 080 pixels
Display aspect ratio : 16:9
Frame rate mode : Constant
Frame rate : 23.976 (24000/1001) FPS
Color space : YUV
Chroma subsampling : 4:2:0
Bit depth : 8 bits
Scan type : Progressive
Bits/(Pixel*Frame) : 0.125
Stream size : 4.05 GiB (90%)
Writing library : x264 core 148 r2715 7e75228
Encoding settings : cabac=1 / ref=4 / deblock=1:0:0 / analyse=0x3:0x111 / me=umh / subme=10 / psy=1 / psy_rd=1.00:0.00 / mixed_ref=1 / me_range=120 / chroma_me=1 / trellis=2 / 8x8dct=1 / cqm=0 / deadzone=21,11 / fast_pskip=1 / chroma_qp_offset=-2 / threads=8 / lookahead_threads=2 / sliced_threads=0 / nr=0 / decimate=1 / interlaced=0 / bluray_compat=0 / stitchable=1 / constrained_intra=0 / bframes=16 / b_pyramid=2 / b_adapt=2 / b_bias=0 / direct=3 / weightb=1 / open_gop=0 / weightp=2 / keyint=240 / keyint_min=121 / scenecut=0 / intra_refresh=0 / rc_lookahead=240 / rc=crf / mbtree=1 / crf=24.0 / qcomp=0.50 / qpmin=6 / qpmax=51 / qpstep=4 / vbv_maxrate=20000 / vbv_bufsize=25000 / crf_max=0.0 / nal_hrd=vbr / filler=0 / ip_ratio=1.40 / aq=1:0.80
Language : English
Default : Yes
Forced : No
Audio #1
ID : 2
Format : AC-3
Format/Info : Audio Coding 3
Commercial name : Dolby Digital
Codec ID : A_AC3
Duration : 1 h 33 min
Bit rate mode : Constant
Bit rate : 192 kb/s
Channel(s) : 2 channels
Channel layout : L R
Sampling rate : 48.0 kHz
Frame rate : 31.250 FPS (1536 SPF)
Compression mode : Lossy
Stream size : 128 MiB (3%)
Title : НТВ+
Language : Russian
Service kind : Complete Main
Default : Yes
Forced : No
Audio #2
ID : 3
Format : AC-3
Format/Info : Audio Coding 3
Commercial name : Dolby Digital
Codec ID : A_AC3
Duration : 1 h 33 min
Bit rate mode : Constant
Bit rate : 192 kb/s
Channel(s) : 2 channels
Channel layout : L R
Sampling rate : 48.0 kHz
Frame rate : 31.250 FPS (1536 SPF)
Compression mode : Lossy
Stream size : 128 MiB (3%)
Title : Сергей Визгунов
Language : Russian
Service kind : Complete Main
Default : No
Forced : No
Audio #3
ID : 4
Format : AC-3
Format/Info : Audio Coding 3
Commercial name : Dolby Digital
Codec ID : A_AC3
Duration : 1 h 33 min
Bit rate mode : Constant
Bit rate : 192 kb/s
Channel(s) : 2 channels
Channel layout : L R
Sampling rate : 48.0 kHz
Frame rate : 31.250 FPS (1536 SPF)
Compression mode : Lossy
Stream size : 128 MiB (3%)
Title : Андрей Гаврилов
Language : Russian
Service kind : Complete Main
Default : No
Forced : No
Audio #4
ID : 5
Format : E-AC-3
Format/Info : Enhanced AC-3
Commercial name : Dolby Digital Plus
Codec ID : A_EAC3
Duration : 1 h 33 min
Bit rate mode : Constant
Bit rate : 128 kb/s
Channel(s) : 2 channels
Channel layout : L R
Sampling rate : 48.0 kHz
Frame rate : 31.250 FPS (1536 SPF)
Compression mode : Lossy
Stream size : 85.3 MiB (2%)
Language : English
Service kind : Complete Main
Default : No
Forced : No
Text
ID : 6
Format : UTF-8
Codec ID : S_TEXT/UTF8
Codec ID/Info : UTF-8 Plain Text
Duration : 1 h 29 min
Bit rate : 49 b/s
Count of elements : 1111
Stream size : 32.6 KiB (0%)
Language : English
Default : No
Forced : No

Скриншоты

Профиль [ЛС]
Показать сообщения:    

Текущее время: 26-Янв 14:08

Часовой пояс: UTC ± 0



Вы не можете начинать темы
Вы не можете отвечать на сообщения
Вы не можете редактировать свои сообщения
Вы не можете удалять свои сообщения
Вы не можете голосовать в опросах
Вы не можете прикреплять файлы к сообщениям
Вы не можете скачивать файлы