MAGNAT ®

Пол:
Мужской
Стаж:
1 год 9 месяцев
Сообщений:
9230

Клир / Kler- Страна: Польша
Жанр: драма
Год выпуска: 2018
Продолжительность: 02:14:00-Перевод: Профессиональный (многоголосый закадровый)
СВ Студия
Оригинальная аудиодорожка: польский-Режиссер: Войчех Смажовски / Wojciech Smarzowski
В ролях: Аркадиуш Якубик, Роберт Венцкевич, Яцек Брачак, Иоанна Кулиг, Януш Гайос, Адриан Заремба, Магда Целувна, Михал Гадомски-Описание: Три священника католической церкви. Три судьбы, три дороги. Как переплетаются их судьбы с другими людьми, какое они оказывают влияние и каков их жизненный путь знают только небеса.-Тип релиза: BDRip 720p
Контейнер: MKV
Видео: MPEG-4 AVC, 1280x536, 2.40:1, 24 fps, 5209 kbps
Аудио 1: Русский, AC3, 48 kHz, 6 ch, 640 kbps
Аудио 2: Польский, AC3, 48 kHz, 6 ch, 640 kbps
Субтитры: русские (форсированные), русские, английские
Формат субтитров: softsub (SRT)-Реклама: Отсутствует-Доп. информация: Релиз подготовлен в рамках проекта Рутрекера по переводу фильмов.
Спонсоры перевода: viryzhkov, snikersni66, XTC_Love, krepelka, blacksun, SuMaMi, инкогнито, NavallOfficer, Nikolasha1956, NIKITA_1976, Руслан250381, Anatoly++, Zorka123456, DERR_84, digitus (teаmhd), Cineman, vodorod2000.-

MediaInfo

General
Unique ID : 106750218938841544500495990624607176921 (0x504F582583A0C3C4DE087D6ADBF288D9)
Complete name : Kler.2018.720p.BluRay.DD5.1.x264.mkv
Format : Matroska
Format version : Version 4
File size : 6.11 GiB
Duration : 2 h 14 min
Overall bit rate : 6 492 kb/s
Encoded date : UTC 2020-12-27 15:41:33
Writing application : mkvmerge v51.0.0 ('I Wish') 64-bit
Writing library : libebml v1.4.0 + libmatroska v1.6.2
Video
ID : 1
Format : AVC
Format/Info : Advanced Video Codec
Format profile : High@L4.1
Format settings : CABAC / 12 Ref Frames
Format settings, CABAC : Yes
Format settings, Reference frames : 12 frames
Codec ID : V_MPEG4/ISO/AVC
Duration : 2 h 14 min
Bit rate : 5 209 kb/s
Width : 1 280 pixels
Height : 536 pixels
Display aspect ratio : 2.40:1
Frame rate mode : Constant
Frame rate : 24.000 FPS
Color space : YUV
Chroma subsampling : 4:2:0
Bit depth : 8 bits
Scan type : Progressive
Bits/(Pixel*Frame) : 0.316
Stream size : 4.91 GiB (80%)
Writing library : x264 core 157 r2867+103 0d6443f t_mod_Custom_2 [8-bit@all X86_64]
Encoding settings : cabac=1 / ref=12 / deblock=1:-3:-3 / analyse=0x3:0x133 / me=tesa / subme=10 / psy=1 / fade_compensate=0.00 / psy_rd=0.90:0.00 / mixed_ref=1 / me_range=32 / chroma_me=1 / trellis=2 / 8x8dct=1 / cqm=0 / deadzone=21,11 / fast_pskip=0 / chroma_qp_offset=-2 / threads=12 / lookahead_threads=3 / sliced_threads=0 / nr=0 / decimate=1 / interlaced=0 / bluray_compat=0 / constrained_intra=0 / fgo=0 / bframes=10 / b_pyramid=2 / b_adapt=2 / b_bias=0 / direct=3 / weightb=1 / open_gop=0 / weightp=2 / keyint=241 / keyint_min=24 / scenecut=40 / intra_refresh=0 / rc_lookahead=60 / rc=crf / mbtree=0 / crf=16.8000 / qcomp=0.60 / qpmin=0:0:0 / qpmax=69:69:69 / qpstep=4 / vbv_maxrate=50000 / vbv_bufsize=62500 / crf_max=0.0 / nal_hrd=none / filler=0 / ip_ratio=1.30 / pb_ratio=1.20 / aq=3:0.80 / aq-sensitivity=10.00 / aq-factor=1.00:1.00:1.00 / aq2=0 / aq3=0
Language : English
Default : Yes
Forced : No
Audio #1
ID : 2
Format : AC-3
Format/Info : Audio Coding 3
Commercial name : Dolby Digital
Codec ID : A_AC3
Duration : 2 h 14 min
Bit rate mode : Constant
Bit rate : 640 kb/s
Channel(s) : 6 channels
Channel layout : L R C LFE Ls Rs
Sampling rate : 48.0 kHz
Frame rate : 31.250 FPS (1536 SPF)
Compression mode : Lossy
Stream size : 617 MiB (10%)
Language : Russian
Service kind : Complete Main
Default : Yes
Forced : No
Audio #2
ID : 3
Format : AC-3
Format/Info : Audio Coding 3
Commercial name : Dolby Digital
Codec ID : A_AC3
Duration : 2 h 14 min
Bit rate mode : Constant
Bit rate : 640 kb/s
Channel(s) : 6 channels
Channel layout : L R C LFE Ls Rs
Sampling rate : 48.0 kHz
Frame rate : 31.250 FPS (1536 SPF)
Compression mode : Lossy
Stream size : 617 MiB (10%)
Language : Polish
Service kind : Complete Main
Default : No
Forced : No
Text #1
ID : 4
Format : UTF-8
Codec ID : S_TEXT/UTF8
Codec ID/Info : UTF-8 Plain Text
Duration : 47 s 385 ms
Bit rate : 30 b/s
Count of elements : 3
Stream size : 179 Bytes (0%)
Title : Forced
Language : Russian
Default : Yes
Forced : No
Text #2
ID : 5
Format : UTF-8
Codec ID : S_TEXT/UTF8
Codec ID/Info : UTF-8 Plain Text
Duration : 2 h 5 min
Bit rate : 69 b/s
Count of elements : 1151
Stream size : 64.1 KiB (0%)
Title : Full
Language : Russian
Default : No
Forced : No
Text #3
ID : 6
Format : UTF-8
Codec ID : S_TEXT/UTF8
Codec ID/Info : UTF-8 Plain Text
Duration : 2 h 12 min
Bit rate : 40 b/s
Count of elements : 1161
Stream size : 39.2 KiB (0%)
Language : English
Default : No
Forced : No
Menu
00:00:00.000 : :Chapter 01
00:13:11.875 : :Chapter 02
00:23:26.833 : :Chapter 03
00:31:38.917 : :Chapter 04
00:41:45.042 : :Chapter 05
00:53:36.333 : :Chapter 06
01:00:51.375 : :Chapter 07
01:12:34.542 : :Chapter 08
01:26:12.417 : :Chapter 09
01:35:40.042 : :Chapter 10
01:49:49.458 : :Chapter 11
02:03:06.542 : :Chapter 12

Скриншоты

Профиль [ЛС]
Показать сообщения:    

Текущее время: 26-Янв 15:27

Часовой пояс: UTC ± 0



Вы не можете начинать темы
Вы не можете отвечать на сообщения
Вы не можете редактировать свои сообщения
Вы не можете удалять свои сообщения
Вы не можете голосовать в опросах
Вы не можете прикреплять файлы к сообщениям
Вы не можете скачивать файлы