MAGNAT ®

Пол:
Мужской
Стаж:
1 год 9 месяцев
Сообщений:
9230

Сердце Клары / Clara's heart
Страна: США
Студия: MTM Enterprises Inc., Warner Bros. Pictures
Жанр: драма
Год выпуска: 1988
Продолжительность: 01:47:59
Перевод: Профессиональный (двухголосый закадровый)
Перевод 2: Одноголосый закадровый
Субтитры: английские (для слабослышащих)
Оригинальная аудиодорожка: английский
Режиссер: Роберт Маллиган / Robert Mulligan
В ролях: Вупи Голдберг, Майкл Онткин, Кэтлин Куинлен, Нил Патрик Харрис, Сполдинг Грей, Беверли Тодд, Хэтти Уинстон, Джейсон Даунс, Кэйтлин Томпсон, Мария Брум, Ванда Кристин, Марис Картер, Энджел Харпер, Фредерик Стротер, Джозеф Муф, Уоррен Лонг, Дорти Каннингэм, Элейн Лотон, Рэнди Микс, Кэтрин Даулинг, Марк Мидофф, Татум Эдейр, Джой Грин, Таня Готье, Форри Бакинхем, Дэн Гриффит, Джейсон Шулер, Кевин Колборн, Кит Джонсон, Дорри Мари
Описание: Герой картины, по имени Дэвид Харт - одинокий подросток, лишенный иллюзий, как старик, и беззащитный, как младенец. Смерть его младшей сестры и сложные отношения родителей, находящихся на грани разрыва, опустошили его сердце, погрузив героя в отчаяние и беспросветное одиночество.
К счастью, он найдёт любовь, в которой так нуждается, и понимающее сердце - Сердце Клары. Когда Клара впервые появляется в роскошном доме Хартов в качестве домработницы, Дэвид относится к ней с осторожностью и опаской. Но достоинство и блестящее чувство юмора Клары вскоре «отогревают» ледяную душу Дэвида.
Тип релиза: BDRemux 1080p
Контейнер: MKV
Видео: ~ 34996 Кбит/сек, AVC 1920*1080 (16:9), 23,976 кадра/сек, CABAC
Аудио: Русский, 828 Кбит/сек, 48,0 КГц, 16 бит, 2 канала, FLAC - двухголоска
Аудио 2: Русский, 192 Кбит/сек, 48,0 КГц, 2 канала, AC-3 - одноголоска
Аудио 3: Английский, 1398 Кбит/сек, 48,0 КГц, 24 бит, 2 канала, FLAC
Формат субтитров: softsub (SRT)

MediaInfo

Общее
Уникальный идентификатор : 338505956665716461173638995076960121461 (0xFEA9E0365E4BFBE1FCD6E6D308227275)
Полное имя : F:\MONAR\Видео\Художественные фильмы\Зарубежное кино\Сердце Клары (1988) BDRemux 1080p.mkv
Формат : Matroska
Версия формата : Version 4
Размер файла : 28,1 Гбайт
Продолжительность : 1 ч. 47 м.
Режим общего битрейта : Переменный
Общий поток : 37,3 Мбит/сек
Название фильма : Clara's heart (1988)
Дата кодирования : UTC 2020-12-25 19:03:43
Программа кодирования : mkvmerge v51.0.0 ('I Wish') 64-bit
Библиотека кодирования : libebml v1.4.0 + libmatroska v1.6.2
Видео
Идентификатор : 1
Формат : AVC
Формат/Информация : Advanced Video Codec
Профиль формата : High@L4.1
Настройки формата : CABAC / 4 Ref Frames
Параметр CABAC формата : Да
Параметр RefFrames формата : 4 кадра
Идентификатор кодека : V_MPEG4/ISO/AVC
Продолжительность : 1 ч. 47 м.
Вид битрейта : Переменный
Битрейт : 34,9 Мбит/сек
Максимальный битрейт : 38,0 Мбит/сек
Ширина : 1 920 пикселей
Высота : 1 080 пикселей
Соотношение сторон : 16:9
Режим частоты кадров : Постоянный
Частота кадров : 23,976 (24000/1001) кадра/сек
Цветовое пространство : YUV
Субдискретизация насыщенности : 4:2:0
Битовая глубина : 8 бит
Тип развёртки : Прогрессивная
Бит/(Пиксели*Кадры) : 0.701
Размер потока : 26,3 Гбайт (94%)
Язык : English
Default : Да
Forced : Нет
Аудио #1
Идентификатор : 2
Формат : FLAC
Формат/Информация : Free Lossless Audio Codec
Идентификатор кодека : A_FLAC
Продолжительность : 1 ч. 47 м.
Вид битрейта : Переменный
Битрейт : 827 Кбит/сек
Каналы : 2 канала
Channel layout : L R
Частота : 48,0 КГц
Частота кадров : 11,719 кадров/сек (4096 SPF)
Битовая глубина : 16 бит
Метод сжатия : Без потерь
Размер потока : 639 Мбайт (2%)
Заголовок : DVO
Библиотека кодирования : libFLAC 1.2.1 (UTC 2007-09-17)
Язык : Russian
Default : Да
Forced : Нет
Аудио #2
Идентификатор : 3
Формат : AC-3
Формат/Информация : Audio Coding 3
Коммерческое название : Dolby Digital
Идентификатор кодека : A_AC3
Продолжительность : 1 ч. 47 м.
Вид битрейта : Постоянный
Битрейт : 192 Кбит/сек
Каналы : 2 канала
Channel layout : L R
Частота : 48,0 КГц
Частота кадров : 31,250 кадров/сек (1536 SPF)
Метод сжатия : С потерями
Размер потока : 148 Мбайт (1%)
Заголовок : VO
Язык : Russian
Service kind : Complete Main
Default : Нет
Forced : Нет
Аудио #3
Идентификатор : 4
Формат : FLAC
Формат/Информация : Free Lossless Audio Codec
Идентификатор кодека : A_FLAC
Продолжительность : 1 ч. 47 м.
Вид битрейта : Переменный
Битрейт : 1 398 Кбит/сек
Каналы : 2 канала
Channel layout : L R
Частота : 48,0 КГц
Частота кадров : 11,719 кадров/сек (4096 SPF)
Битовая глубина : 24 бит
Метод сжатия : Без потерь
Размер потока : 1,05 Гбайт (4%)
Заголовок : original
Библиотека кодирования : libFLAC 1.2.1 (UTC 2007-09-17)
Язык : English
Default : Нет
Forced : Нет
Текст
Идентификатор : 5
Формат : UTF-8
Идентификатор кодека : S_TEXT/UTF8
Идентификатор кодека/Информация : UTF-8 Plain Text
Продолжительность : 1 ч. 47 м.
Битрейт : 62 бит/сек
Count of elements : 1610
Размер потока : 48,9 Кбайт (0%)
Заголовок : SDH
Язык : English
Default : Нет
Forced : Нет
Меню
00:00:00.000 : en:Chapter 01
00:04:28.685 : en:Chapter 02
00:06:45.322 : en:Chapter 03
00:09:01.541 : en:Chapter 04
00:12:36.714 : en:Chapter 05
00:14:35.625 : en:Chapter 06
00:17:52.613 : en:Chapter 07
00:19:53.109 : en:Chapter 08
00:22:03.656 : en:Chapter 09
00:25:03.502 : en:Chapter 10
00:26:26.710 : en:Chapter 11
00:27:46.957 : en:Chapter 12
00:30:03.051 : en:Chapter 13
00:32:53.305 : en:Chapter 14
00:34:19.599 : en:Chapter 15
00:35:59.908 : en:Chapter 16
00:39:07.303 : en:Chapter 17
00:41:28.778 : en:Chapter 18
00:43:50.461 : en:Chapter 19
00:47:22.048 : en:Chapter 20
00:49:26.964 : en:Chapter 21
00:52:56.090 : en:Chapter 22
00:54:23.427 : en:Chapter 23
00:56:49.489 : en:Chapter 24
00:57:59.768 : en:Chapter 25
00:59:54.424 : en:Chapter 26
01:02:02.385 : en:Chapter 27
01:04:22.150 : en:Chapter 28
01:06:26.482 : en:Chapter 29
01:07:42.558 : en:Chapter 30
01:09:57.026 : en:Chapter 31
01:12:05.238 : en:Chapter 32
01:14:14.867 : en:Chapter 33
01:17:09.250 : en:Chapter 34
01:20:06.051 : en:Chapter 35
01:22:31.113 : en:Chapter 36
01:24:37.489 : en:Chapter 37
01:26:12.793 : en:Chapter 38
01:29:19.187 : en:Chapter 39
01:33:32.857 : en:Chapter 40
01:35:19.672 : en:Chapter 41
01:39:24.292 : en:Chapter 42
01:41:28.124 : en:Chapter 43
01:44:43.277 : en:Chapter 44

Скриншоты

Профиль [ЛС]
Показать сообщения:    

Текущее время: 18-Янв 10:47

Часовой пояс: UTC ± 0



Вы не можете начинать темы
Вы не можете отвечать на сообщения
Вы не можете редактировать свои сообщения
Вы не можете удалять свои сообщения
Вы не можете голосовать в опросах
Вы не можете прикреплять файлы к сообщениям
Вы не можете скачивать файлы