MAGNAT ®

Пол:
Мужской
Стаж:
1 год 9 месяцев
Сообщений:
9230

Доктор Лиза- Жанр: драма, биография
Год выпуска: 2020
Страна: Россия
Продолжительность: 01:59:58
Субтитры: нет
Режиссёр: Оксана Карас-В ролях: Чулпан Хаматова, Анджей Хыра, Константин Хабенский, Андрей Бурковский, Евгений Писарев, Алексей Агранович, Сергей Сосновский, Татьяна Догилева, Елена Коренева, Тимофей Трибунцев
Описание: Один день из жизни Елизаветы Петровны Глинки. История начинается с праздничного события: Елизавета и её муж Глеб готовятся отметить 30-ю годовщину свадьбы. На домашний ужин приглашены близкие друзья, приезжают сыновья. Конечно, Лиза освободила этот день, чтобы провести его с семьёй. По плану у неё только одно дело – заехать на Павелецкий вокзал, ведь там сегодня Фонд доктора Лизы «Справедливая помощь» принимает пациентов. И эта поездка оказывается полна неожиданностей.-Качество видео: WEB-DLRip-AVC
Формат видео: MKV
Видео: 1072x448 (2.40:1), 24.000 fps, x264, ~1706 Kbps avg, 0.15 bits/pixel
Аудио: 48 kHz, AC3 Dolby Digital, 3/2 (L,C,R,l,r) + LFE ch, ~384 kbps avg

MediaInfo

Format : Matroska
Format version : Version 4
File size : 1.79 GiB
Duration : 1 h 59 min
Overall bit rate : 2 133 kb/s
Encoded date : UTC 2021-01-04 14:09:56
Writing application : mkvmerge v51.0.0 ('I Wish') 32-bit
Writing library : libebml v1.4.0 + libmatroska v1.6.2
Video
ID : 1
Format : AVC
Format/Info : Advanced Video Codec
Format profile : High@L4.1
Format settings : CABAC / 10 Ref Frames
Format settings, CABAC : Yes
Format settings, Reference : 10 frames
Codec ID : V_MPEG4/ISO/AVC
Duration : 1 h 59 min
Bit rate : 1 706 kb/s
Width : 1 072 pixels
Height : 448 pixels
Display aspect ratio : 2.40:1
Frame rate mode : Constant
Frame rate : 24.000 FPS
Color space : YUV
Chroma subsampling : 4:2:0
Bit depth : 8 bits
Scan type : Progressive
Bits/(Pixel*Frame) : 0.148
Stream size : 1.43 GiB (80%)
Writing library : x264 core 161 r3018 db0d417
Encoding settings : cabac=1 / ref=10 / deblock=1:-3:-3 / analyse=0x3:0x133 / me=umh / subme=9 / psy=1 / psy_rd=1.00:0.08 / mixed_ref=1 / me_range=24 / chroma_me=1 / trellis=2 / 8x8dct=1 / cqm=0 / deadzone=21,11 / fast_pskip=1 / chroma_qp_offset=-3 / threads=6 / lookahead_threads=1 / sliced_threads=0 / nr=0 / decimate=0 / interlaced=0 / bluray_compat=0 / constrained_intra=0 / bframes=14 / b_pyramid=2 / b_adapt=2 / b_bias=0 / direct=3 / weightb=1 / open_gop=0 / weightp=2 / keyint=240 / keyint_min=23 / scenecut=40 / intra_refresh=0 / rc_lookahead=60 / rc=crf / mbtree=1 / crf=18.0 / qcomp=0.60 / qpmin=0 / qpmax=69 / qpstep=4 / ip_ratio=1.40 / aq=2:1.00
Default : Yes
Forced : No
Audio
ID : 2
Format : AC-3
Format/Info : Audio Coding 3
Commercial name : Dolby Digital
Codec ID : A_AC3
Duration : 1 h 59 min
Bit rate mode : Constant
Bit rate : 384 kb/s
Channel(s) : 6 channels
Channel layout : L R C LFE Ls Rs
Sampling rate : 48.0 kHz
Frame rate : 31.250 FPS (1536 SPF)
Compression mode : Lossy
Stream size : 330 MiB (18%)
Service kind : Complete Main
Default : Yes
Forced : No

Скриншот c названием фильма

Скриншоты

Профиль [ЛС]
Показать сообщения:    

Текущее время: 26-Янв 15:04

Часовой пояс: UTC ± 0



Вы не можете начинать темы
Вы не можете отвечать на сообщения
Вы не можете редактировать свои сообщения
Вы не можете удалять свои сообщения
Вы не можете голосовать в опросах
Вы не можете прикреплять файлы к сообщениям
Вы не можете скачивать файлы