MAGNAT ®

Пол:
Мужской
Стаж:
1 год 9 месяцев
Сообщений:
9230

Мини Макс / Приключения чокнутого профессора
Жанр: фантастика, комедия, приключения, семейный
Год выпуска: 2020
Продолжительность: 01:21:00
Режиссёр: Олег Асадулин
В ролях: Пётр Фёдоров, Артем Фадеев, Марк Богатырев, Женя Малахова, Ирина Розанова, Юрий Стоянов, Ян Цапник, Ирина Медведева, Платон Каменев, Иван Титяев

Описание: Молодой амбициозный учёный Максим Минаев на пороге грандиозного открытия: он разработал способ менять человеческие ткани на молекулярном уровне, а значит – улучшать тело, способности и таланты. Однако эксперимент оборачивается провалом - Макс превратился в крошечного десятисантиметрового человечка без всяких суперспособностей... Любимая девушка его бросила, а лучший друг оказался предателем. Единственный, кто может помочь Максу - это 12-летний мальчик, прикованный к инвалидному креслу.

Качество видео: WEB-DLRip
Формат видео: AVI
Видео: 720x400 (1.80:1), 25 fps, XviD build 73 ~2378 kbps avg, 0.33 bit/pixel
Аудио: 48 kHz, AC3 Dolby Digital, 2/0 (L,R) ch, ~192 kbps

MediaInfo

General
Complete name : J:\Мини Макс WEB-DLRip.avi
Format : AVI
Format/Info : Audio Video Interleave
File size : 1.46 GiB
Duration : 1 h 21 min
Overall bit rate : 2 581 kb/s
Writing application : VirtualDubMod 1.5.10.3 | www.virtualdub-fr.org || (build 2550/release)
Writing library : VirtualDubMod build 2550/release
Video
ID : 0
Format : MPEG-4 Visual
Format profile : Advanced Simple@L5
Format settings : BVOP1
Format settings, BVOP : 1
Format settings, QPel : No
Format settings, GMC : No warppoints
Format settings, Matrix : Default (MPEG)
Codec ID : XVID
Codec ID/Hint : XviD
Duration : 1 h 21 min
Bit rate : 2 379 kb/s
Width : 720 pixels
Height : 400 pixels
Display aspect ratio : 16:9
Frame rate : 25.000 FPS
Color space : YUV
Chroma subsampling : 4:2:0
Bit depth : 8 bits
Scan type : Progressive
Compression mode : Lossy
Bits/(Pixel*Frame) : 0.330
Stream size : 1.35 GiB (92%)
Writing library : XviD 73
Audio
ID : 1
Format : AC-3
Format/Info : Audio Coding 3
Codec ID : 2000
Duration : 1 h 21 min
Bit rate mode : Constant
Bit rate : 192 kb/s
Channel(s) : 2 channels
Channel positions : Front: L R
Sampling rate : 48.0 kHz
Frame rate : 31.250 FPS (1536 SPF)
Bit depth : 16 bits
Compression mode : Lossy
Stream size : 111 MiB (7%)
Alignment : Split accross interleaves
Interleave, duration : 40 ms (1.00 video frame)
Interleave, preload duratio : 500 ms
Service kind : Complete Main

Скриншоты


Профиль [ЛС]
Показать сообщения:    

Текущее время: 26-Янв 16:24

Часовой пояс: UTC ± 0



Вы не можете начинать темы
Вы не можете отвечать на сообщения
Вы не можете редактировать свои сообщения
Вы не можете удалять свои сообщения
Вы не можете голосовать в опросах
Вы не можете прикреплять файлы к сообщениям
Вы не можете скачивать файлы