dolphin ®

Пол:
Не указан
Стаж:
10 месяцев 27 дней
Сообщений:
29

Девственница среди живых мертвецов (Кристина, принцесса эротизма)Оригинальное название: La nuit des étoiles filantes (A Virgin Among the Living Dead)
Год выпуска: 1973
Жанр: Эротика, ужасы
Режиссер: Хесус Франко, Жан Роллен, Пьер Керю
В ролях: Кристина фон Бланк, Бритт Николс, Роса Паломар, Анн Либер, Говард Вернон, Хесус Франко, Пауль Мюллер, Элис Арно, Фернандо Бильбао, Антонио де Кабо, Вал Дэвис, Николь Гуетта, Линда Хастрайтер, Роуз Кикенс, Френс Николас, Надин Паскаль, Пьер Телу
О фильме:
Студентка Кристина из Лондона приезжает в Гондурас для оглашения завещания своего недавно умершего отца среди далёких родственников. Хозяева выглядят и ведут себя весьма странно - периодически пьют кровь или проявляют свои лесбийские наклонности, однако Кристина не придаёт этому особого значения. Вскоре по ночам Кристине начинают снится кошмары, в которых она видит своего отца с петлёй на шее. Кристина, думая, что сходит с ума, решает больше узнать о своём отце и о его родственниках. Немногим позже, всё глубже окунаясь в семейные тайны, Кристина узнаёт, что родственники то и сами не совсем живы, а точнее являются привидениями.

Страна: Бельгия, Франция, Италия, Лихтенштейн
Студия: Brux International Pictures, CFFP, J.K. Films, Prodif Ets.
Продолжительность: 01:19:18
Перевод: Авторский одноголосый (Антон Алексеев)
Файл
Формат: MKV
Качество: BDRip-AVC
Видео: MPEG-4 AVC, 680x410, 1237 Кбит/с
Аудио: AAC-HE, 2 ch, 76 Кбит/с
Субтитры: Нет

MI

Общее
Уникальный идентификатор : 59915275668292231502443409883257214143 (0x2D1343299AA57B8E5EDB5ED069E994BF)
Полное имя : D:MOVIESDevstvennica.sredi.mertvecov.1973.BDRip-AVC.ExKinoRay.mkv
Формат : Matroska
Версия формата : Version 4
Размер файла : 746 Мбайт
Продолжительность : 1 ч. 19 м.
Общий поток : 1 314 Кбит/сек
Дата кодирования : UTC 2021-01-07 06:09:11
Программа кодирования : mkvmerge v45.0.0 ('Heaven in Pennies') 64-bit
Библиотека кодирования : libebml v1.3.10 + libmatroska v1.5.2
Видео
Идентификатор : 1
Формат : AVC
Формат/Информация : Advanced Video Codec
Профиль формата : High@L4.1
Настройки формата : CABAC / 16 Ref Frames
Параметр CABAC формата : Да
Параметр RefFrames формата : 16 кадров
Идентификатор кодека : V_MPEG4/ISO/AVC
Продолжительность : 1 ч. 19 м.
Битрейт : 1 237 Кбит/сек
Ширина : 680 пикселей
Высота : 410 пикселей
Соотношение сторон : 5:3
Режим частоты кадров : Постоянный
Частота кадров : 23,976 (24000/1001) кадра/сек
Цветовое пространство : YUV
Субдискретизация насыщенности : 4:2:0
Битовая глубина : 8 бит
Тип развёртки : Прогрессивная
Бит/(Пиксели*Кадры) : 0.185
Размер потока : 701 Мбайт (94%)
Библиотека кодирования : x264 core 160 r3000 33f9e14
Настройки программы : cabac=1 / ref=16 / deblock=1:-2:-2 / analyse=0x3:0x133 / me=umh / subme=10 / psy=1 / psy_rd=1.05:0.15 / mixed_ref=1 / me_range=32 / chroma_me=1 / trellis=2 / 8x8dct=1 / cqm=0 / deadzone=21,11 / fast_pskip=0 / chroma_qp_offset=-3 / threads=6 / lookahead_threads=1 / sliced_threads=0 / nr=0 / decimate=0 / interlaced=0 / bluray_compat=0 / constrained_intra=0 / bframes=11 / b_pyramid=2 / b_adapt=2 / b_bias=0 / direct=3 / weightb=1 / open_gop=0 / weightp=2 / keyint=240 / keyint_min=23 / scenecut=40 / intra_refresh=0 / rc=2pass / mbtree=0 / bitrate=1237 / ratetol=1.0 / qcomp=0.60 / qpmin=0 / qpmax=69 / qpstep=4 / cplxblur=20.0 / qblur=0.5 / ip_ratio=1.40 / pb_ratio=1.30 / aq=3:1.00
Default : Да
Forced : Нет
Цветовой диапазон : Limited
Основные цвета : BT.709
Характеристики трансфера : BT.709
Коэффициенты матрицы : BT.709
Аудио
Идентификатор : 2
Формат : AAC LC SBR
Формат/Информация : Advanced Audio Codec Low Complexity with Spectral Band Replication
Коммерческое название : HE-AAC
Настройки формата : Explicit
Идентификатор кодека : A_AAC-2
Продолжительность : 1 ч. 19 м.
Битрейт : 76,0 Кбит/сек
Каналы : 2 канала
Channel layout : L R
Частота : 48,0 КГц
Частота кадров : 23,438 кадра/сек (2048 SPF)
Метод сжатия : С потерями
Задержка видео : 31 мс.
Размер потока : 43,1 Мбайт (6%)
Язык : Russian
Default : Да
Forced : Нет
Меню
00:00:00.000 : en:Глава 01
00:08:43.481 : en:Глава 02
00:18:18.680 : en:Глава 03
00:25:18.141 : en:Глава 04
00:35:35.925 : en:Глава 05
00:44:00.471 : en:Глава 06
00:49:24.335 : en:Глава 07
00:55:38.001 : en:Глава 08
01:04:44.672 : en:Глава 09
01:10:22.091 : en:Глава 10

Скриншоты

Профиль [ЛС]

MAGNAT

Пол:
Мужской
Стаж:
1 год 9 месяцев
Сообщений:
9230

Чёй ты решила размяться ??? ))))

Создавать темы 07-Янв-2021 18:59 (спустя 53 секунды)

[Цитировать]

Профиль [ЛС]
Показать сообщения:    

Текущее время: 18-Янв 11:19

Часовой пояс: UTC ± 0



Вы не можете начинать темы
Вы не можете отвечать на сообщения
Вы не можете редактировать свои сообщения
Вы не можете удалять свои сообщения
Вы не можете голосовать в опросах
Вы не можете прикреплять файлы к сообщениям
Вы не можете скачивать файлы