Статистика раздачи
Нет
 
     
 
 

MAGNAT ®

Пол:
Мужской
Стаж:
1 год 10 месяцев
Сообщений:
9254

Земля кочевников / Nomadland- Год выхода: 2020
Страна: США, Германия
Жанр: драма
Продолжительность: 01:47:15
Перевод: Любительский (многоголосый закадровый) MUZOBOZ
Субтитры: нет-Режиссер:
Хлоя Чжао / Chloé Zhao-В ролях:
Фрэнсис МакДорманд, Дэвид Стрэтэйрн, Гэй ДеФорест, Патриша Грайр, Линда Мэй, Анджела Рэйс, Карл Р. Хьюз, Дуглас Дж. Соул, Райан Аквино, Тереза Бьюкэнэн, Кариэ Линн Макдермотт Уайлдер-О фильме:
60-летняя женщина Ферн остается без работы и без дома, когда во время экономического кризиса закрывается единственная фабрика в её небольшом городке. Единственный выход - погрузить свой небогатый скарб в фургон и стать одной из племени современных кочевников, путешествующих от штата к штату в поисках сезонного заработка.-Качество: Screener
Формат: AVI
Видео: 720x304 (2.37:1), 23.976 fps, XviD build 69 ~1613 kbps avg, 0.31 bit/pixel
Аудио: 48 kHz, AC3 Dolby Digital, 2/0 (L,R) ch, ~192 kbps avg - Thx KinoPub-

Скриншоты

-

MediaInfo

Код:Общее
Полное имя : D:\Nomadland_2020_WEB-DLRip_MVO_by_Dalemake.avi
Формат : AVI
Формат/Информация : Audio Video Interleave
Размер файла : 1,36 Гбайт
Продолжительность : 1 ч. 47 м.
Общий поток : 1815 Кбит/сек
Программа кодирования : VirtualDubMod 1.5.10.3 | www.virtualdub-fr.org || (build 2550/release)
Библиотека кодирования : VirtualDubMod build 2550/release
Видео
Идентификатор : 0
Формат : MPEG-4 Visual
Профиль формата : Advanced Simple@L5
Настройки формата : BVOP1 / Custom Matrix
Параметр BVOP формата : 1
Параметр QPel формата : Нет
Параметр GMC формата : Без точки перехода
Параметр матрицы формата : Выборочная
Идентификатор кодека : XVID
Идентификатор кодека/Подсказка : XviD
Продолжительность : 1 ч. 47 м.
Битрейт : 1613 Кбит/сек
Ширина : 720 пикселей
Высота : 304 пикселя
Соотношение сторон : 2,35:1
Частота кадров : 23,976 (24000/1001) кадра/сек
Частота кадров в оригинале : 23,976 (23976/1000) кадра/сек
Цветовое пространство : YUV
Субдискретизация насыщенности : 4:2:0
Битовая глубина : 8 бит
Тип развёртки : Прогрессивная
Метод сжатия : С потерями
Бит/(Пиксели*Кадры) : 0.307
Размер потока : 1,21 Гбайт (89%)
Библиотека кодирования : XviD 69
Аудио
Идентификатор : 1
Формат : AC-3
Формат/Информация : Audio Coding 3
Коммерческое название : Dolby Digital
Идентификатор кодека : 2000
Продолжительность : 1 ч. 47 м.
Вид битрейта : Постоянный
Битрейт : 192 Кбит/сек
Каналы : 2 канала
ChannelLayout : L R
Частота : 48,0 КГц
Частота кадров : 31,250 кадров/сек (1536 SPF)
Битовая глубина : 16 бит
Метод сжатия : С потерями
Размер потока : 147 Мбайт (11%)
Выравнивание : Разделение по промежуткам
Продолжительность промежутка : 42 мс. (1,00 видеокадр)
Время предзагрузки промежутка : 500 мс.
ServiceKind/String : Complete Main
Профиль [ЛС]
Показать сообщения:    

Текущее время: 24-Фев 22:43

Часовой пояс: UTC ± 0



Вы не можете начинать темы
Вы не можете отвечать на сообщения
Вы не можете редактировать свои сообщения
Вы не можете удалять свои сообщения
Вы не можете голосовать в опросах
Вы не можете прикреплять файлы к сообщениям
Вы не можете скачивать файлы