Статистика раздачи
Нет
 
     
 
 

MAGNAT ®

Пол:
Мужской
Стаж:
1 год 10 месяцев
Сообщений:
9254

Новости со всех концов света / News of the World
«По зову сердца. Навстречу судьбе»
- Год выхода: 2020
Страна: США
Жанр: вестерн, драма, приключения
Продолжительность: 01:58:19
Перевод: Любительский (многоголосый закадровый) MUZOBOZ
Субтитры: нет-Режиссер:
Пол Гринграсс / Paul Greengrass-В ролях:
Том Хэнкс, Стив Бойлес, Хелен Зенгель, Том Эстор, Джон Трэвис Джонсон, Энди Кастелич, Рэй МакКиннон, Мэр Уиннингхэм, Джеффри Уэр, Крис Билсма-О фильме:
Капитан Джефферсон Кайл Кидд путешествует из города в город, делясь новостями со всех концов света, а также историями о президентах и королевах, великих сражениях и разрушительных катастрофах. На равнинах Техаса его путь пересекается с десятилетней Джоанной, которая была похищена племенем Кайова и последние шесть лет воспитывалась в традициях индейской коммуны. Кидд соглашается доставить девочку в дом ее дяди и тети, единственных оставшихся в живых родственников. Преодолевая сотни миль по суровой дикой местности, эти двое столкнутся как с природными катаклизмами, так и с человеческой жестокостью, в поисках места, которое назовут своим домом.-Качество: WEB-DLRp [AMZN]
Формат: AVI
Видео: 720x304 (2.37:1), 23.976 fps, XviD build 69 ~1497 kbps avg, 0.29 bit/pixel
Аудио: 48 kHz, AC3 Dolby Digital, 2/0 (L,R) ch, ~192 kbps avg-

Скриншоты

-

MediaInfo

Код:Общее
Полное имя : E:\News_of_the_World_2020_WEB-DLRip_MVO_by_Dalemake.avi
Формат : AVI
Формат/Информация : Audio Video Interleave
Размер файла : 1,40 Гбайт
Продолжительность : 1 ч. 58 м.
Общий поток : 1 699 Кбит/сек
Программа кодирования : VirtualDubMod 1.5.10.3 | www.virtualdub-fr.org || (build 2550/release)
Библиотека кодирования : VirtualDubMod build 2550/release
Видео
Идентификатор : 0
Формат : MPEG-4 Visual
Профиль формата : Advanced Simple@L5
Настройки формата : BVOP1 / Custom Matrix
Параметр BVOP формата : 1
Параметр QPel формата : Нет
Параметр GMC формата : Без точки перехода
Параметр матрицы формата : Выборочная
Идентификатор кодека : XVID
Идентификатор кодека/Подсказка : XviD
Продолжительность : 1 ч. 58 м.
Битрейт : 1 497 Кбит/сек
Ширина : 720 пикселей
Высота : 304 пикселя
Соотношение сторон : 2,35:1
Частота кадров : 23,976 (24000/1001) кадра/сек
Цветовое пространство : YUV
Субдискретизация насыщенности : 4:2:0
Битовая глубина : 8 бит
Тип развёртки : Прогрессивная
Метод сжатия : С потерями
Бит/(Пиксели*Кадры) : 0.285
Размер потока : 1,24 Гбайт (88%)
Библиотека кодирования : XviD 69
Аудио
Идентификатор : 1
Формат : AC-3
Формат/Информация : Audio Coding 3
Коммерческое название : Dolby Digital
Идентификатор кодека : 2000
Продолжительность : 1 ч. 58 м.
Вид битрейта : Постоянный
Битрейт : 192 Кбит/сек
Каналы : 2 канала
Channel layout : L R
Частота : 48,0 КГц
Частота кадров : 31,250 кадров/сек (1536 SPF)
Метод сжатия : С потерями
Размер потока : 162 Мбайт (11%)
Выравнивание : Разделение по промежуткам
Продолжительность промежутка : 42 мс. (1,00 видеокадр)
Время предзагрузки промежутка : 500 мс.
Service kind : Complete Main
-
Профиль [ЛС]
Показать сообщения:    

Текущее время: 24-Фев 23:15

Часовой пояс: UTC ± 0



Вы не можете начинать темы
Вы не можете отвечать на сообщения
Вы не можете редактировать свои сообщения
Вы не можете удалять свои сообщения
Вы не можете голосовать в опросах
Вы не можете прикреплять файлы к сообщениям
Вы не можете скачивать файлы