Статистика раздачи
Нет
 
     
 
 

MAGNAT ®

Пол:
Мужской
Стаж:
1 год 10 месяцев
Сообщений:
9254

Новости со всех концов света / News of the World
«По зову сердца. Навстречу судьбе»
- Год выхода: 2020
Страна: США
Жанр: вестерн, драма, приключения
Продолжительность: 01:58:19
Перевод: Любительский (многоголосый закадровый) MUZOBOZ
Субтитры: Английские (полные)
Оригинальная аудиодорожка: Английская
Навигация по главам: Есть (24 главы)-Режиссер:
Пол Гринграсс / Paul Greengrass-В ролях:
Том Хэнкс, Стив Бойлес, Хелен Зенгель, Том Эстор, Джон Трэвис Джонсон, Энди Кастелич, Рэй МакКиннон, Мэр Уиннингхэм, Джеффри Уэр, Крис Билсма-О фильме:
Капитан Джефферсон Кайл Кидд путешествует из города в город, делясь новостями со всех концов света, а также историями о президентах и королевах, великих сражениях и разрушительных катастрофах. На равнинах Техаса его путь пересекается с десятилетней Джоанной, которая была похищена племенем Кайова и последние шесть лет воспитывалась в традициях индейской коммуны. Кидд соглашается доставить девочку в дом ее дяди и тети, единственных оставшихся в живых родственников. Преодолевая сотни миль по суровой дикой местности, эти двое столкнутся как с природными катаклизмами, так и с человеческой жестокостью, в поисках места, которое назовут своим домом.-Качество: WEB-DLRip-AVC
Формат: MKV
Видео: 1152x480 (2,40:1), 23,976 fps, x264 ~2523 kbps avg, 0.190 bit/pixel
Аудио #1: 48 kHz, AC3 Dolby Digital, 2/0 (L,R) ch, ~192 kbps avg avg (RUS) - Thx KinoPub
Аудио #2: 48 kHz, AC3 Dolby Digital, 3/2 (L,C,R,l,r) + LFE ch, ~384 kbps (ENG)
Формат субтитров: Softsub (.srt*)-

Скриншоты

-

MediaInfo

Код:Общее
Полное имя : E:\News_of_the_World_2020_WEB-DLRip-AVC_MVO_by_Dalemake.mkv
Формат : Matroska
Версия формата : Version 2
Размер файла : 2,61 Гбайт
Продолжительность : 1 ч. 58 м.
Общий поток : 3 161 Кбит/сек
Название фильма : [News_of_the_World_2020_All_Films_Rutracker]
Дата кодирования : UTC 2021-01-16 08:16:24
Программа кодирования : mkvmerge v7.8.0 ('River Man') 32bit built on Apr 3 2015 12:11:22
Библиотека кодирования : libebml v1.3.1 + libmatroska v1.4.2
Видео
Идентификатор : 1
Формат : AVC
Формат/Информация : Advanced Video Codec
Профиль формата : High@L4.1
Настройки формата : CABAC / 12 Ref Frames
Параметр CABAC формата : Да
Параметр RefFrames формата : 12 кадров
Идентификатор кодека : V_MPEG4/ISO/AVC
Продолжительность : 1 ч. 58 м.
Битрейт : 2 523 Кбит/сек
Ширина : 1 152 пикселя
Высота : 480 пикселей
Соотношение сторон : 2,40:1
Режим частоты кадров : Постоянный
Частота кадров : 23,976 кадра/сек
Цветовое пространство : YUV
Субдискретизация насыщенности : 4:2:0
Битовая глубина : 8 бит
Тип развёртки : Прогрессивная
Бит/(Пиксели*Кадры) : 0.190
Размер потока : 2,08 Гбайт (80%)
Заголовок : [News_of_the_World_2020_All_Films_Rutracker]
Библиотека кодирования : x264 core 160 r3009 4c9b076
Настройки программы : cabac=1 / ref=12 / deblock=1:-2:-2 / analyse=0x3:0x113 / me=umh / subme=11 / psy=1 / psy_rd=1.00:0.10 / mixed_ref=1 / me_range=32 / chroma_me=1 / trellis=2 / 8x8dct=1 / cqm=0 / deadzone=21,11 / fast_pskip=0 / chroma_qp_offset=-5 / threads=6 / lookahead_threads=1 / sliced_threads=0 / nr=0 / decimate=1 / interlaced=0 / bluray_compat=0 / constrained_intra=0 / bframes=10 / b_pyramid=2 / b_adapt=2 / b_bias=0 / direct=3 / weightb=1 / open_gop=0 / weightp=2 / keyint=240 / keyint_min=23 / scenecut=40 / intra_refresh=0 / rc_lookahead=60 / rc=crf / mbtree=0 / crf=18.1 / qcomp=0.60 / qpmin=0 / qpmax=69 / qpstep=4 / vbv_maxrate=78125 / vbv_bufsize=62500 / crf_max=0.0 / nal_hrd=none / filler=0 / ip_ratio=1.40 / pb_ratio=1.35 / aq=1:1.00
Язык : English
Default : Да
Forced : Нет
Duration_Source : General_Duration
Аудио #1
Идентификатор : 2
Формат : AC-3
Формат/Информация : Audio Coding 3
Коммерческое название : Dolby Digital
Идентификатор кодека : A_AC3
Продолжительность : 1 ч. 58 м.
Вид битрейта : Постоянный
Битрейт : 192 Кбит/сек
Каналы : 2 канала
Channel layout : L R
Частота : 48,0 КГц
Частота кадров : 31,250 кадров/сек (1536 SPF)
Метод сжатия : С потерями
Размер потока : 162 Мбайт (6%)
Заголовок : MVO - MUZOBOZ
Язык : Russian
Service kind : Complete Main
Default : Да
Forced : Нет
Duration_Source : General_Duration
Аудио #2
Идентификатор : 3
Формат : AC-3
Формат/Информация : Audio Coding 3
Коммерческое название : Dolby Digital
Идентификатор кодека : A_AC3
Продолжительность : 1 ч. 58 м.
Вид битрейта : Постоянный
Битрейт : 384 Кбит/сек
Каналы : 6 каналов
Channel layout : L R C LFE Ls Rs
Частота : 48,0 КГц
Частота кадров : 31,250 кадров/сек (1536 SPF)
Метод сжатия : С потерями
Размер потока : 325 Мбайт (12%)
Заголовок : Original
Язык : English
Service kind : Complete Main
Default : Нет
Forced : Нет
Duration_Source : General_Duration
Текст
Идентификатор : 4
Формат : UTF-8
Идентификатор кодека : S_TEXT/UTF8
Идентификатор кодека/Информация : UTF-8 Plain Text
Заголовок : Full
Язык : English
Default : Нет
Forced : Нет
Меню
00:00:00.000 : en:Studio Logo
00:00:30.000 : en:Scene 2
00:03:41.000 : en:Scene 3
00:09:58.000 : en:Scene 4
00:15:37.000 : en:Scene 5
00:19:51.000 : en:Scene 6
00:23:00.000 : en:Scene 7
00:30:30.000 : en:Scene 8
00:35:48.000 : en:Scene 9
00:42:04.000 : en:Scene 10
00:51:10.000 : en:Scene 11
00:58:46.000 : en:Scene 12
01:01:41.000 : en:Scene 13
01:09:53.000 : en:Scene 14
01:12:20.000 : en:Scene 15
01:16:41.000 : en:Scene 16
01:23:03.000 : en:Scene 17
01:25:51.000 : en:Scene 18
01:28:19.000 : en:Scene 19
01:31:39.000 : en:Scene 20
01:33:42.000 : en:Scene 21
01:37:24.000 : en:Scene 22
01:51:00.000 : en:Scene 23
01:53:36.000 : en:End Credits
-
Профиль [ЛС]
Показать сообщения:    

Текущее время: 24-Фев 23:44

Часовой пояс: UTC ± 0



Вы не можете начинать темы
Вы не можете отвечать на сообщения
Вы не можете редактировать свои сообщения
Вы не можете удалять свои сообщения
Вы не можете голосовать в опросах
Вы не можете прикреплять файлы к сообщениям
Вы не можете скачивать файлы