Статистика раздачи
Нет
 
     
 
 

MAGNAT ®

Пол:
Мужской
Стаж:
1 год 10 месяцев
Сообщений:
9254

Пустой человек / The Empty Man- Год выхода: 2020
Страна: США, ЮАР, Великобритания
Жанр: детектив, ужасы
Продолжительность: 02:16:53
Перевод: Любительский (двухголосый закадровый) Колобок
Субтитры: нет-Режиссер:
Дэвид Прайор / David Prior-В ролях:
Джеймс Бэдж Дэйл, Стивен Рут, Джоэл Кортни, Марин Айрлэнд, Раснит Каур, Аарон Пул, Роберт Арамайо, Саманта Логан, Эван Йоникит, Адам Фергюсон, Роберт Коуттс, Роберт Ли Дэвис, Коннер Даудс, Джессика Маттен, Рон Кэнада-О фильме:
В 1995 году, путешествуя по горам Бутана, один из четырёх американских туристов провалился в странную пещеру и как будто впал в оцепенение. Судьба его товарищей была печальна. В 2018 году в штате Миссури бывший полицейский Джеймс Ласомбра, тяжело переживающий гибель жены и маленького сына, берётся разыскивать пропавшую старшеклассницу Аманду. Он выясняет, что недавно она в компании друзей исполнила на мосту ритуал, якобы призывающий Пустого человека. Никто в эту городскую легенду не верит, но вскоре Джеймс обнаруживает тела друзей Аманды под тем самым мостом, а сама девушка оказывается как-то связана с загадочной организацией.-Качество: WEB-DLRip
Формат: AVI
Видео: 688x384 (1.79:1), 23.976 fps, XviD build 69 ~1324 kbps avg, 0.21 bit/pixel
Аудио: 48 kHz, AC3 Dolby Digital, 2/0 (L,R) ch, ~192.00 kbps avg-

Скриншоты

-

MediaInfo

Код:Общее
Полное имя : D:\The_Empty_Man_2020_WEB-DLRip_DVO_by_Dalemake.avi
Формат : AVI
Формат/Информация : Audio Video Interleave
Размер файла : 1,46 Гбайт
Продолжительность : 2 ч. 16 м.
Общий поток : 1 526 Кбит/сек
Программа кодирования : VirtualDubMod 1.5.10.3 | www.virtualdub-fr.org || (build 2550/release)
Библиотека кодирования : VirtualDubMod build 2550/release
Видео
Идентификатор : 0
Формат : MPEG-4 Visual
Профиль формата : Advanced Simple@L5
Настройки формата : BVOP1 / Custom Matrix
Параметр BVOP формата : 1
Параметр QPel формата : Нет
Параметр GMC формата : Без точки перехода
Параметр матрицы формата : Выборочная
Идентификатор кодека : XVID
Идентификатор кодека/Подсказка : XviD
Продолжительность : 2 ч. 16 м.
Битрейт : 1 325 Кбит/сек
Ширина : 688 пикселей
Высота : 384 пикселя
Соотношение сторон : 16:9
Частота кадров : 23,976 (24000/1001) кадра/сек
Частота кадров в оригинале : 23,976 (23976/1000) кадра/сек
Цветовое пространство : YUV
Субдискретизация насыщенности : 4:2:0
Битовая глубина : 8 бит
Тип развёртки : Прогрессивная
Метод сжатия : С потерями
Бит/(Пиксели*Кадры) : 0.209
Размер потока : 1,27 Гбайт (87%)
Библиотека кодирования : XviD 69
Аудио
Идентификатор : 1
Формат : AC-3
Формат/Информация : Audio Coding 3
Коммерческое название : Dolby Digital
Идентификатор кодека : 2000
Продолжительность : 2 ч. 16 м.
Вид битрейта : Постоянный
Битрейт : 192 Кбит/сек
Каналы : 2 канала
Channel layout : L R
Частота : 48,0 КГц
Частота кадров : 31,250 кадров/сек (1536 SPF)
Метод сжатия : С потерями
Размер потока : 188 Мбайт (13%)
Выравнивание : Разделение по промежуткам
Продолжительность промежутка : 42 мс. (1,00 видеокадр)
Время предзагрузки промежутка : 500 мс.
Service kind : Complete Main
Профиль [ЛС]
Показать сообщения:    

Текущее время: 24-Фев 22:54

Часовой пояс: UTC ± 0



Вы не можете начинать темы
Вы не можете отвечать на сообщения
Вы не можете редактировать свои сообщения
Вы не можете удалять свои сообщения
Вы не можете голосовать в опросах
Вы не можете прикреплять файлы к сообщениям
Вы не можете скачивать файлы