Статистика раздачи
Нет
 
     
 
 

MAGNAT ®

Пол:
Мужской
Стаж:
1 год 11 месяцев
Сообщений:
9392

Честный вор / Honest Thief
Страна: США
Жанр: боевик, триллер, драма, мелодрама, криминал
Год выпуска: 2020
Продолжительность: 01:39:25
Перевод: Авторский (одноголосый закадровый) Андрей Гаврилов
Субтитры: нет
Оригинальная аудиодорожка: нет
Режиссер: Марк Уильямс / Mark Williams
В ролях: Лиам Нисон, Кейт Уолш, Джай Кортни, Джеффри Донован, Роберт Патрик, Бироль Йильдиз, Адам Тепер, Хосе Ганз Алвес, Османи Родригес, Девон Дип, Джэми Хазарьян, Майкл Малвести
Описание: Он – профессиональный грабитель банков, который решил отойти от дел. Но стать честным, будучи вором, не так просто: ему придется дать отпор продажным копам, чтобы спасти своё имя и любимую.
Качество видео: BDRip
Формат видео: AVI
Видео: XviD; 720x304 (2.35:1); 1707 Kbps; 23,976 fps; 0,325 bit/pixel
Аудио: AC3; 48 kHz, 384 Kbps; CBR; 6 ch

MediaInfo

General
Complete name : Honest_Thief_2020_BDRip.Gavrilov.lumpeN.avi
Format : AVI
Format/Info : Audio Video Interleave
File size : 1.46 GiB
Duration : 1 h 39 min
Overall bit rate : 2 100 kb/s
Movie name : lumpeN
Writing application : VirtualDubMod 1.5.10.3 | www.virtualdub-fr.org || (build 2550/release)
Writing library : VirtualDubMod build 2550/release
Video
ID : 0
Format : MPEG-4 Visual
Format profile : Advanced Simple@L5
Format settings : BVOP1 / Custom Matrix
Format settings, BVOP : 1
Format settings, QPel : No
Format settings, GMC : No warppoints
Format settings, Matrix : Custom
Codec ID : XVID
Codec ID/Hint : XviD
Duration : 1 h 39 min
Bit rate : 1 707 kb/s
Width : 720 pixels
Height : 304 pixels
Display aspect ratio : 2.35:1
Frame rate : 23.976 (24000/1001) FPS
Original frame rate : 23.976 (23976/1000) FPS
Color space : YUV
Chroma subsampling : 4:2:0
Bit depth : 8 bits
Scan type : Progressive
Compression mode : Lossy
Bits/(Pixel*Frame) : 0.325
Stream size : 1.19 GiB (81%)
Writing library : XviD 69
Audio
ID : 1
Format : AC-3
Format/Info : Audio Coding 3
Commercial name : Dolby Digital
Codec ID : 2000
Duration : 1 h 39 min
Bit rate mode : Constant
Bit rate : 384 kb/s
Channel(s) : 6 channels
Channel layout : L R C LFE Ls Rs
Sampling rate : 48.0 kHz
Frame rate : 31.250 FPS (1536 SPF)
Compression mode : Lossy
Stream size : 273 MiB (18%)
Alignment : Split across interleaves
Interleave, duration : 42 ms (1.00 video frame)
Interleave, preload duration : 500 ms
Title : Gavrilov
Service kind : Complete Main

Скриншоты

Профиль [ЛС]
Показать сообщения:    

Текущее время: 28-Фев 22:34

Часовой пояс: UTC ± 0



Вы не можете начинать темы
Вы не можете отвечать на сообщения
Вы не можете редактировать свои сообщения
Вы не можете удалять свои сообщения
Вы не можете голосовать в опросах
Вы не можете прикреплять файлы к сообщениям
Вы не можете скачивать файлы