Статистика раздачи
Нет
 
     
 
 

MAGNAT ®

Пол:
Мужской
Стаж:
1 год 10 месяцев
Сообщений:
9254

Крестная мама / La Daronne
Страна: Франция
Жанр: драма, комедия, криминал
Год выпуска: 2020
Продолжительность: 01:45:14-Перевод: Профессиональный (дублированный) | iTunes
Субтитры: нет
Оригинальная аудиодорожка: нет-Режиссер:
Жан-Поль Саломе / Jean-Paul Salomé-В ролях:
Изабель Юппер, Ипполит Жирардо, Фарида Ушани, Лилиан Ровер, Ирис Бри, Надя Нгуйен, Ребекка Мардер, Рашид Гуэллаз, Мурад Будауд, Юссеф Сарауи-Описание: Талантливая переводчица работает в полиции, помогая раскрывать преступления. Однажды ей становится известно о крупной партии наркотиков. Соблазн изменить жизнь слишком велик. И вот она превращается в НаркоМаму, которая строит свою империю. Теперь вся полиция охотится за ней.-Качество видео: BDRip | La.Daronne.2020.BDREMUX.1080p.seleZen
Формат видео: AVI
Видео: 720x304 (2.37:1), 23.976 fps, XviD build 73 ~1588 kbps avg, 0.30 bit/pixel
Аудио: 48 kHz, AC3 Dolby Digital, 3/2 (L,C,R,l,r) + LFE ch, ~384 kbps-

MediaInfo

Код:
Формат : AVI
Формат/Информация : Audio Video Interleave
Размер файла : 1,46 Гбайт
Продолжительность : 1 ч. 45 м.
Общий поток : 1 982 Кбит/сек
Название фильма : Крестная мама_2020_BDRip
Программа кодирования : VirtualDubMod 1.5.10.3 | www.virtualdub-fr.org || (build 2550/release)
Авторское право : порошков
Видео
Идентификатор : 0
Формат : MPEG-4 Visual
Профиль формата : Advanced Simple@L5
Настройки формата : BVOP1 / Custom Matrix
Параметр BVOP формата : 1
Параметр QPel формата : Нет
Параметр GMC формата : Без точки перехода
Параметр матрицы формата : Выборочная
Идентификатор кодека : XVID
Идентификатор кодека/Подсказка : XviD
Продолжительность : 1 ч. 45 м.
Битрейт : 1 589 Кбит/сек
Ширина : 720 пикселей
Высота : 304 пикселя
Соотношение сторон : 2,35:1
Частота кадров : 23,976 (24000/1001) кадра/сек
Цветовое пространство : YUV
Субдискретизация насыщенности : 4:2:0
Битовая глубина : 8 бит
Тип развёртки : Прогрессивная
Метод сжатия : С потерями
Бит/(Пиксели*Кадры) : 0.303
Размер потока : 1,17 Гбайт (80%)
Библиотека кодирования : XviD 73
Аудио
Идентификатор : 1
Формат : AC-3
Формат/Информация : Audio Coding 3
Коммерческое название : Dolby Digital
Идентификатор кодека : 2000
Продолжительность : 1 ч. 45 м.
Вид битрейта : Постоянный
Битрейт : 384 Кбит/сек
Каналы : 6 каналов
Channel layout : L R C LFE Ls Rs
Частота : 48,0 КГц
Частота кадров : 31,250 кадров/сек (1536 SPF)
Метод сжатия : С потерями
Размер потока : 289 Мбайт (19%)
Выравнивание : Разделение по промежуткам
Продолжительность промежутка : 42 мс. (1,00 видеокадр)
Время предзагрузки промежутка : 500 мс.
Service kind : Complete Main

Скриншоты


Профиль [ЛС]
Показать сообщения:    

Текущее время: 24-Фев 23:28

Часовой пояс: UTC ± 0



Вы не можете начинать темы
Вы не можете отвечать на сообщения
Вы не можете редактировать свои сообщения
Вы не можете удалять свои сообщения
Вы не можете голосовать в опросах
Вы не можете прикреплять файлы к сообщениям
Вы не можете скачивать файлы