Статистика раздачи
Нет
 
     
 
 

MAGNAT ®

Пол:
Мужской
Стаж:
1 год 10 месяцев
Сообщений:
9254

Дичь / Freaky
Страна: США
Жанр: ужасы, комедия, фэнтези
Год выпуска: 2020
Продолжительность: 01:42:05
Перевод: Профессиональный (дублированный) iTunes
Субтитры: русские (форсированные, 2-x полные) отдельно
Режиссер: Кристофер Лэндон / Christopher Landon
В ролях: Винс Вон, Кэтрин Ньютон, Селеста О’Коннор, Миша Ошерович, Эмили Холдер, Николас Старгел, Келли Ламор Уилсон, Митчелл Хуг, Дэна Дрори, Кэти Финнеран
Описание: В среду 11-го опасный психопат по кличке Мясник, сбежавший из психбольницы для преступников, убил четырёх подростков. В руках у маньяка также оказался антикварный кинжал, с которым он следующим вечером нападает на затюканную старшеклассницу Милли, но девушке удаётся спастись. На следующий день, в пятницу 13-го, Милли просыпается на заброшенном складе в теле маньяка, а сам Мясник - в уютной девичьей спальне в теле невинной старшеклассницы. Разумеется, он с большим удовольствием пойдёт в школу, а Милли теперь предстоит выяснить, как вернуться в своё тело и при этом не попасться полиции.
Качество видео: WEB-DLRip
Формат видео: AVI
Видео: 720x304 (2.37:1), 23.976 fps, XviD build 73 ~1654 kbps avg, 0.32 bit/pixel
Аудио: 48 kHz, AC3 Dolby Digital, 3/2 (L,C,R,l,r) + LFE ch, ~384 kbps
Формат субтитров: softsub (SRT)

MediaInfo

Общее
Полное имя : E:\Freaky.2020.WEB-DLRip\Freaky.2020.WEB-DLRip.avi
Формат : AVI
Формат/Информация : Audio Video Interleave
Размер файла : 1,46 Гбайт
Продолжительность : 1 ч. 42 м.
Общий поток : 2 048 Кбит/сек
Программа кодирования : VirtualDubModRus 1.5.10.2 (build 2542/release)
Библиотека кодирования : VirtualDubMod build 2542/release
Видео
Идентификатор : 0
Формат : MPEG-4 Visual
Профиль формата : Advanced Simple@L5
Настройки формата : BVOP1 / Custom Matrix
Параметр BVOP формата : 1
Параметр QPel формата : Нет
Параметр GMC формата : Без точки перехода
Параметр матрицы формата : Выборочная
Идентификатор кодека : XVID
Идентификатор кодека/Подсказка : XviD
Продолжительность : 1 ч. 42 м.
Битрейт : 1 655 Кбит/сек
Ширина : 720 пикселей
Высота : 304 пикселя
Соотношение сторон : 2,35:1
Частота кадров : 23,976 (24000/1001) кадра/сек
Цветовое пространство : YUV
Субдискретизация насыщенности : 4:2:0
Битовая глубина : 8 бит
Тип развёртки : Прогрессивная
Метод сжатия : С потерями
Бит/(Пиксели*Кадры) : 0.315
Размер потока : 1,18 Гбайт (81%)
Библиотека кодирования : XviD 73
Аудио
Идентификатор : 1
Формат : AC-3
Формат/Информация : Audio Coding 3
Коммерческое название : Dolby Digital
Идентификатор кодека : 2000
Продолжительность : 1 ч. 42 м.
Вид битрейта : Постоянный
Битрейт : 384 Кбит/сек
Каналы : 6 каналов
Channel layout : L R C LFE Ls Rs
Частота : 48,0 КГц
Частота кадров : 31,250 кадров/сек (1536 SPF)
Метод сжатия : С потерями
Размер потока : 280 Мбайт (19%)
Выравнивание : Разделение по промежуткам
Продолжительность промежутка : 42 мс. (1,00 видеокадр)
Время предзагрузки промежутка : 500 мс.
Service kind : Complete Main

Скриншот c названием фильма

Скриншоты

Профиль [ЛС]
Показать сообщения:    

Текущее время: 24-Фев 23:33

Часовой пояс: UTC ± 0



Вы не можете начинать темы
Вы не можете отвечать на сообщения
Вы не можете редактировать свои сообщения
Вы не можете удалять свои сообщения
Вы не можете голосовать в опросах
Вы не можете прикреплять файлы к сообщениям
Вы не можете скачивать файлы