Статистика раздачи
Нет
 
     
 
 

MAGNAT ®

Пол:
Мужской
Стаж:
1 год 10 месяцев
Сообщений:
9254

Малышка с характером / The Doorman- Год выпуска: 2020
Страна: США
Студия: Lionsgate, Anamorphic Media, Double Dutch International, Smash Media, CR8IV DNA
Жанр: боевик, триллер
Продолжительность: 01:36:55
Перевод: Профессиональный (дублированный)
Субтитры: английские (форсированные, полные, полные SDH)
Оригинальная аудиодорожка: английский-Режиссер: Рюхэй Китамура / Ryuhei Kitamura-В ролях: Руби Роуз, Жан Рено, Аксель Хенни, Руперт Эванс, Джулиан Федер, Дэвид Сакурай, Луис Мэндилор, Хидэаки Ито, Кила Лорд Кэссиди, Филип Уитчёрч.-Описание: В центре событий оказывается Эли Горски, служившая ранее в морской пехоте, а ныне работающая швейцаром в респектабельном отеле Нью-Йорка. Сыграла героиню Роуз. И именно ей придется выстроить грамотный план действий, дабы обвести вокруг пальца бандитов, возглавляемых жестоким лидером, которого сыграл Жан Рено. На протяжении всего времени девушке приходится обеспечивать защиту отеля, на который напали грабители, специализирующиеся на похищении произведений искусства.-Качество видео: BDRip-AVC
Формат видео: MKV | Sample
Видео: 1040x436 (2.40:1), 23,976 fps, x264 ~2320 kbps avg, 0.213 bit/pixel
Аудио 1: Russian 48 kHz, AC3 Dolby Digital, 3/2 (L,C,R,l,r) + LFE ch, ~384.00 kbps avg / Дубляж
Аудио 2: English 48 kHz, AC3 Dolby Digital, 3/2 (L,C,R,l,r) + LFE ch, ~448.00 kbps avg / Original

Инфо

Format : Matroska
Format version : Version 4
File size : 2.13 GiB
Duration : 1 h 36 min
Overall bit rate : 3 149 kb/s
Movie name : The Doorman / 2020
Encoded date : UTC 2021-01-06 16:59:35
Writing application : mkvmerge v51.0.0 ('I Wish') 32-bit
Writing library : libebml v1.4.0 + libmatroska v1.6.2
Video
ID : 1
Format : AVC
Format/Info : Advanced Video Codec
Format profile : High@L4.1
Format settings : CABAC / 11 Ref Frames
Format settings, CABAC : Yes
Format settings, Reference : 11 frames
Codec ID : V_MPEG4/ISO/AVC
Duration : 1 h 36 min
Bit rate : 2 320 kb/s
Width : 1 040 pixels
Height : 436 pixels
Display aspect ratio : 2.40:1
Frame rate mode : Constant
Frame rate : 23.976 FPS
Color space : YUV
Chroma subsampling : 4:2:0
Bit depth : 8 bits
Scan type : Progressive
Bits/(Pixel*Frame) : 0.213
Stream size : 1.57 GiB (74%)
Title : BDRip-AVC
Writing library : x264 core 161 r3018 db0d417
Encoding settings : cabac=1 / ref=11 / deblock=1:-3:-3 / analyse=0x3:0x113 / me=umh / subme=11 / psy=1 / psy_rd=1.00:0.00 / mixed_ref=1 / me_range=48 / chroma_me=1 / trellis=2 / 8x8dct=1 / cqm=0 / deadzone=21,11 / fast_pskip=0 / chroma_qp_offset=-2 / threads=14 / lookahead_threads=2 / sliced_threads=0 / nr=0 / decimate=0 / interlaced=0 / bluray_compat=0 / constrained_intra=0 / bframes=9 / b_pyramid=2 / b_adapt=2 / b_bias=0 / direct=3 / weightb=1 / open_gop=0 / weightp=2 / keyint=240 / keyint_min=24 / scenecut=40 / intra_refresh=0 / rc_lookahead=40 / rc=2pass / mbtree=0 / bitrate=2320 / ratetol=1.0 / qcomp=0.60 / qpmin=0 / qpmax=69 / qpstep=4 / cplxblur=20.0 / qblur=0.5 / vbv_maxrate=50000 / vbv_bufsize=62500 / nal_hrd=none / filler=0 / ip_ratio=1.40 / pb_ratio=1.30 / aq=1:1.10
Language : English
Default : Yes
Forced : No
Audio #1
ID : 2
Format : AC-3
Format/Info : Audio Coding 3
Commercial name : Dolby Digital
Codec ID : A_AC3
Duration : 1 h 36 min
Bit rate mode : Constant
Bit rate : 384 kb/s
Channel(s) : 6 channels
Channel layout : L R C LFE Ls Rs
Sampling rate : 48.0 kHz
Frame rate : 31.250 FPS (1536 SPF)
Compression mode : Lossy
Stream size : 266 MiB (12%)
Title : Dub
Language : Russian
Service kind : Complete Main
Default : Yes
Forced : No
Audio #2
ID : 3
Format : AC-3
Format/Info : Audio Coding 3
Commercial name : Dolby Digital
Codec ID : A_AC3
Duration : 1 h 36 min
Bit rate mode : Constant
Bit rate : 448 kb/s
Channel(s) : 6 channels
Channel layout : L R C LFE Ls Rs
Sampling rate : 48.0 kHz
Frame rate : 31.250 FPS (1536 SPF)
Compression mode : Lossy
Stream size : 311 MiB (14%)
Title : Original
Language : English
Service kind : Complete Main
Default : No
Forced : No
Text #1
ID : 4
Format : UTF-8
Codec ID : S_TEXT/UTF8
Codec ID/Info : UTF-8 Plain Text
Duration : 1 h 0 min
Bit rate : 0 b/s
Count of elements : 14
Stream size : 339 Bytes (0%)
Title : Forced
Language : English
Default : No
Forced : No
Text #2
ID : 5
Format : UTF-8
Codec ID : S_TEXT/UTF8
Codec ID/Info : UTF-8 Plain Text
Duration : 1 h 30 min
Bit rate : 48 b/s
Count of elements : 1078
Stream size : 32.6 KiB (0%)
Title : Full
Language : English
Default : No
Forced : No
Text #3
ID : 6
Format : UTF-8
Codec ID : S_TEXT/UTF8
Codec ID/Info : UTF-8 Plain Text
Duration : 1 h 30 min
Bit rate : 65 b/s
Count of elements : 1233
Stream size : 44.0 KiB (0%)
Title : Full SDH
Language : English
Default : No
Forced : No
Menu
00:00:00.000 : en:Chapter 01
00:06:21.089 : en:Chapter 02
00:15:03.777 : en:Chapter 03
00:24:15.078 : en:Chapter 04
00:33:01.521 : en:Chapter 05
00:42:19.119 : en:Chapter 06
00:51:43.850 : en:Chapter 07
00:59:06.834 : en:Chapter 08
01:07:56.238 : en:Chapter 09
01:16:41.388 : en:Chapter 10
01:24:16.843 : en:Chapter 11
01:29:32.533 : en:Chapter 12

Скриншоты

Профиль [ЛС]
Показать сообщения:    

Текущее время: 24-Фев 23:08

Часовой пояс: UTC ± 0



Вы не можете начинать темы
Вы не можете отвечать на сообщения
Вы не можете редактировать свои сообщения
Вы не можете удалять свои сообщения
Вы не можете голосовать в опросах
Вы не можете прикреплять файлы к сообщениям
Вы не можете скачивать файлы